img image001 image001 image001 image001 image001 image001 image001 image001 image001 image001 image001 image001 image001 image001 image001

Planets Sun Sun Sun
Статистика раздачи
Автор: Снежана | Размер: 4.37 ГБ | Добавлен: 24 июл 2013
Раздают: 34    Качают: 7
Скачать торрент
Скачать торрент
Описание торрента

СообщениеДобавлено: 24 июл 2013 

#77

Информация о фильме
Название: Антикиллер Д.К: Любовь без памяти
Год выхода: 2009
Жанр: боевик, детектив
Режиссер: Эльдар Салаватов
В ролях: Гоша Куценко, Вячеслав Разбегаев, Михаил Ефремов, Иван Бортник, Александр Тютин, Екатерина Климова, Александр Мякушко, Станислав Любшин, Евгений Антропов, Руслан Хабибуллов

О фильме: Бывший майор милиции Коренев по прозвищу Лис после событий, связанных с ликвидацией банды террористов, продолжает бороться со злом во всех его проявлениях.

На этот раз судьба находит Лиса в лечебно-трудовом профилактории, где тот прячется от окружающей действительности. Жена его бросила, на работе конфликты из-за его нетрадиционных методов работы, и только в клинике Лис чувствует себя спокойно. Но когда в городе происходит ряд покушений на людей из его прошлой жизни, Лису не удается остаться в стороне.

Банкир Хондачев и его референт, молодая женщина по имени Катя, забирают Коренева из лечебно-трудового профилактория и просят помочь в поиске людей, покушавшихся на банкира и, очевидно, похитивших крупную сумму денег из его банка. Лис, больше из интереса к девушке, соглашается, не представляя, во что он ввязывается. Расследование столкнет Лиса с его прошлым, о котором он хотел бы забыть, и перевернет его жизнь, подарив настоящую любовь.


Выпущено: Arnold and Gregor Production
Продолжительность: 01:35:38
Перевод: оригинал

Файл
Кодек: x264
Качество: BDRip (источник: Blu-ray Disc)
Видео: 1920x816 (2,35:1), 23.976 fps, 6096 kbps
Звук: 48 kHz, AC-3, 6 ch, 448 kbps
Скачать: сэмпл

Скриншоты

Общее
Уникальный идентификатор : 215413170584472158490193515039888974367 (0xA20F114BE69585CA8C4D4917AF6F221F)
Полное имя : Antikiller.D.K.Lyubov.bez.pamyati.2009.BDRip.1080p.Rus.mkv
Формат : Matroska
Версия формата : Version 2
Размер файла : 4,37 Гбайт
Продолжительность : 1 ч. 35 м.
Общий поток : 6543 Кбит/сек
Дата кодирования : UTC 2011-09-15 14:30:07
Программа кодирования : mkvmerge v4.0.0 ('The Stars were mine') сборка от Jun 6 2010 16:18:42
Библиотека кодирования : libebml v1.0.0 + libmatroska v1.0.0

Видео
Идентификатор : 1
Формат : AVC
Формат/Информация : Advanced Video Codec
Профиль формата : High@L4.1
Параметр CABAC формата : Да
Параметр ReFrames формата : 5 кадров
Идентификатор кодека : V_MPEG4/ISO/AVC
Продолжительность : 1 ч. 35 м.
Битрейт : 6096 Кбит/сек
Ширина : 1920 пикселей
Высота : 816 пикселей
Соотношение сторон : 2,35:1
Частота кадров : 23,976 кадра/сек
Цветовое пространство : YUV
Субдискретизация насыщенности : 4:2:0
Битовая глубина : 8 бит
Тип развёртки : Прогрессивная
Бит/(Пиксели*Кадры) : 0.162
Размер потока : 3,98 Гбайт (91%)
Библиотека кодирования : x264 core 116 r2074 2641b9e
Настройки программы : cabac=1 / ref=5 / deblock=1:0:0 / analyse=0x3:0x133 / me=umh / subme=10 / psy=1 / psy_rd=1.00:0.10 / mixed_ref=1 / me_range=32 / chroma_me=1 / trellis=2 / 8x8dct=1 / cqm=0 / deadzone=21,11 / fast_pskip=0 / chroma_qp_offset=-3 / threads=12 / sliced_threads=0 / nr=0 / decimate=1 / interlaced=0 / bluray_compat=0 / constrained_intra=0 / bframes=5 / b_pyramid=2 / b_adapt=2 / b_bias=0 / direct=3 / weightb=1 / open_gop=0 / weightp=2 / keyint=250 / keyint_min=23 / scenecut=40 / intra_refresh=0 / rc_lookahead=60 / rc=2pass / mbtree=1 / bitrate=6096 / ratetol=1.0 / qcomp=0.60 / qpmin=0 / qpmax=69 / qpstep=4 / cplxblur=20.0 / qblur=0.5 / ip_ratio=1.40 / aq=1:1.00
Язык : Russian

Аудио
Идентификатор : 2
Формат : AC-3
Формат/Информация : Audio Coding 3
Расширение режима : CM (complete main)
Идентификатор кодека : A_AC3
Продолжительность : 1 ч. 35 м.
Вид битрейта : Постоянный
Битрейт : 448 Кбит/сек
Каналы : 6 каналов
Расположение каналов : Front: L C R, Side: L R, LFE
Частота : 48,0 КГц
Битовая глубина : 16 бит
Метод сжатия : С потерями
Размер потока : 306 Мбайт (7%)
Язык : Russian

Меню
00:00:00.000 : :Chapter 01
00:07:59.937 : :Chapter 02
00:15:59.959 : :Chapter 03
00:23:59.938 : :Chapter 04
00:31:59.959 : :Chapter 05
00:39:59.980 : :Chapter 06
00:47:59.918 : :Chapter 07
00:53:59.945 : :Chapter 08
00:59:59.971 : :Chapter 09
01:04:59.896 : :Chapter 10
01:14:59.912 : :Chapter 11
01:24:59.886 : :Chapter 12
01:35:37.565 : :Chapter 13



   Похожие торренты   Торрент   Размер 
В этой теме нет новых непрочитанных сообщений. Антикиллер Д.К: Любовь без памяти (2009) BDRip 1080p

96 | 7

7.18 ГБ

В этой теме нет новых непрочитанных сообщений. Антикиллер Д.К: Любовь без памяти (2009) BDRip-AVC

70 | 6

2.19 ГБ

В этой теме нет новых непрочитанных сообщений. Антикиллер Д.К: Любовь без памяти (2009) BDRip от HQCLUB

91 | 8

1.46 ГБ

В этой теме нет новых непрочитанных сообщений. Антикиллер Д.К: Любовь без памяти (2009) BDRip-AVC от olegek70

159 | 19

1.37 ГБ

В этой теме нет новых непрочитанных сообщений. OST. Антикиллер Д.К: Любовь без памяти (2009) MP3

3 | 4

54.42 МБ

В этой теме нет новых непрочитанных сообщений. Антикиллер Д.К: Любовь без памяти (2009) Blu-Ray

1 | 2

21.42 ГБ

В этой теме нет новых непрочитанных сообщений. Антикиллер Д.К: Любовь без памяти (2009) DVDRip

25 | 6

700.9 МБ




Вы не можете начинать темы
Вы не можете отвечать на сообщения
Вы не можете редактировать свои сообщения
Вы не можете удалять свои сообщения
Вы не можете добавлять вложения

Перейти:  
Для Мосгорсуда, Роскомнадзора и рекламодателей: mosgorsud-torrent[собачка]yandex.ru
 Вход
ppkBB3cker v.2 © 2008-2014 @ PPK
[ Time : 0.046s | 14 Queries | GZIP : Off ]

Торрент трекер RUTOR.IN, Не можете зайти на rutor.org? Какой новый адрес рутор? Какое зеркало рутор? Не работает rutor.org и зеркала? Тогда наш торрент специально для вас. Rutor.in неофициальное зеркало rutor. В случае если у Вас заблокирован rutor или вдруг Вы не можете на него зайти, то Вы без труда сможете скачать бесплатно и без рекламы последние новинки кино, игр, сериалов и прочего у нас, на Rutor.in. Не нужно использовать прокси, чтобы зайти на рутор, достаточно воспользоваться нашим ресурсом. Все новые фильмы, игры, сериалы, книги и музыка за 2013 и 2014 годы через торрент бесплатно. Скачивайте фильмы в хорошем качестве, игры для пк, xbox, playstation без регистрации. У нас вы найдете новые Зарубежные сериалы и Русские сериалы 2013, 2014, 2015 годов. Оставайтесь с нами, качайте любимые фильмы, игры, сериалы, книги и музыку.