img image001 image001 image001 image001 image001 image001 image001 image001 image001 image001 image001 image001 image001 image001 image001

Planets Sun Sun Sun
Статистика раздачи
Автор: Снежана | Размер: 7.31 ГБ | Добавлен: 24 июл 2013
Раздают: 148    Качают: 13
Скачать торрент
Скачать торрент
Описание торрента

СообщениеДобавлено: 24 июл 2013 

#77


Название: Место встречи изменить нельзя
Год выхода: 1979
Жанр: Детектив, криминальный фильм, экранизация
Режиссер: Станислав Говорухин
В ролях: Владимир Высоцкий, Владимир Конкин, Сергей Юрский, Александр Белявский, Виктор Павлов, Армен Джигарханян, Зиновий Гердт, Наталья Фатеева, Леонид Куравлёв, Светлана Светличная, Евгений Евстигнеев, Валерия Заклунная, Евгений Шутов, Лев Перфилов, Александр Милютин, Андрей Градов, Наталья Данилова, Алексей Миронов, Всеволод Абдулов, Евгений Леонов-Гладышев, Нина Корниенко, Павел Махотин, Лариса Удовиченко, Иван Бортник, Станислав Садальский, Владлен Паулус, Людмила Давыдова, Екатерина Градова, Олег Савосин, Владимир Жариков, Юнона Карева, Николай Слесарев, Наталья Петрова, Нина Озорнина, Татьяна Ткач, Наталия Ченчик, Александр Абдулов, Наталья Крачковская, Валентин Кулик

О фильме: Лето 1945 года. Отгремел салют Великой Победы и страна постепенно возвращается к мирной жизни. Из "огня да в полымя" попадает молоденький командир разведроты Володя Шарапов, придя по распределению в МУР, в отдел по борьбе с бандитизмом. В городе лютует банда "Чёрная кошка", наводя ужас на москвичей. В схватку с бандитами вступает капитан Глеб Жеглов, для которого Шарапов вскоре становится правой рукой...
Капитан Жеглов в этой картине, снятой по роману братьев Вайнеров режиссёром Станиславом Говорухиным, это одна из самых ярких ролей гениального Владимира Высоцкого. Созданный образ беспощадного борца с бандитами, настоящего героя послевоенного времени, бесподобен по своему реализму и эмоциональной насыщенности.



Выпущено: СССР / "Одесская киностудия"
Продолжительность: 06:02:49 (5 серий)
Язык: Русский


Кодек: H264/High@L4.1
Качество видео: DVDRip-AVC
Формат: MPEG-4
Видео: 768x576, 4:3, 25 fps, ~2500 kbps avg, 0.23 bit/pixel
Аудио: AAC-LC, 48 kHz, 6 ch, 384 kbps avg





Формат : MPEG-4
Профиль формата : Base Media
Идентификатор кодека : isom
Размер файла : 1,35 Гбайт
Продолжительность : 1 ч. 6 м.
Общий поток : 2886 Кбит/сек
Программа кодирования : Lavf53.6.0
Видео
Идентификатор : 1
Формат : AVC
Формат/Информация : Advanced Video Codec
Профиль формата : High@L4.1
Параметр CABAC формата : Да
Параметр ReFrames формата : 6 кадров
Идентификатор кодека : avc1
Идентификатор кодека/Информация : Advanced Video Coding
Продолжительность : 1 ч. 6 м.
Битрейт : 2500 Кбит/сек
Ширина : 768 пикселей
Высота : 576 пикселей
Соотношение сторон : 4:3
Режим частоты кадров : Постоянный
Частота кадров : 25,000 кадров/сек
Цветовое пространство : YUV
Субдискретизация насыщенности : 4:2:0
Битовая глубина : 8 бит
Тип развёртки : Прогрессивная
Бит/(Пиксели*Кадры) : 0.226
Размер потока : 1,17 Гбайт (87%)
Библиотека кодирования : x264 core 116 r2019 9cc407d
Настройки программы : cabac=1 / ref=6 / deblock=1:0:0 / analyse=0x3:0x133 / me=umh / subme=7 / psy=1 / psy_rd=1.00:0.00 / mixed_ref=1 / me_range=16 / chroma_me=1 / trellis=2 / 8x8dct=1 / cqm=0 / deadzone=21,11 / fast_pskip=0 / chroma_qp_offset=-2 / threads=3 / sliced_threads=0 / nr=0 / decimate=1 / interlaced=0 / bluray_compat=0 / constrained_intra=0 / bframes=3 / b_pyramid=2 / b_adapt=2 / b_bias=0 / direct=3 / weightb=1 / open_gop=0 / weightp=2 / keyint=250 / keyint_min=25 / scenecut=40 / intra_refresh=0 / rc_lookahead=200 / rc=2pass / mbtree=1 / bitrate=2500 / ratetol=1.0 / qcomp=0.60 / qpmin=0 / qpmax=69 / qpstep=4 / cplxblur=20.0 / qblur=0.5 / ip_ratio=1.40 / aq=1:1.00

Аудио
Идентификатор : 2
Формат : AAC
Формат/Информация : Advanced Audio Codec
Профиль формата : LC
Идентификатор кодека : 40
Продолжительность : 1 ч. 6 м.
Вид битрейта : Постоянный
Битрейт : 384 Кбит/сек
Каналы : 6 каналов
Расположение каналов : Front: L C R, Side: L R, LFE
Частота : 48,0 КГц
Метод сжатия : С потерями
Размер потока : 182 Мбайт (13%)



   Похожие торренты   Торрент   Размер 
В этой теме нет новых непрочитанных сообщений. Место встречи изменить нельзя (1979) DVDRip

362 | 16

4.36 ГБ

В этой теме нет новых непрочитанных сообщений. Место встречи изменить нельзя (1979) DVDRip-AVC

359 | 31

6.3 ГБ

В этой теме нет новых непрочитанных сообщений. Место встречи изменить нельзя (1979) DVDRip-AVC от ExKinoRay

607 | 62

7.2 ГБ

В этой теме нет новых непрочитанных сообщений. Место встречи изменить нельзя [01-05 из 05] (1979) DVDRip от GeneralFilm

468 | 67

4.35 ГБ

В этой теме нет новых непрочитанных сообщений. Место встречи изменить нельзя (1979) Blu-ray 1080p

16 | 21

42.45 ГБ

В этой теме нет новых непрочитанных сообщений. Место встречи изменить нельзя (1979) DVD9

4 | 3

15.51 ГБ

В этой теме нет новых непрочитанных сообщений. Место встречи изменить нельзя (1979) ВDRip от New-team

127 | 35

4.37 ГБ




Вы не можете начинать темы
Вы не можете отвечать на сообщения
Вы не можете редактировать свои сообщения
Вы не можете удалять свои сообщения
Вы не можете добавлять вложения

Перейти:  
Для Мосгорсуда, Роскомнадзора и рекламодателей: mosgorsud-torrent[собачка]yandex.ru
 Вход
ppkBB3cker v.2 © 2008-2014 @ PPK
[ Time : 0.079s | 14 Queries | GZIP : Off ]
CGP output time : 0.043s | 5 Queries | GZIP : Off

Торрент трекер RUTOR.IN, Не можете зайти на rutor.org? Какой новый адрес рутор? Какое зеркало рутор? Не работает rutor.org и зеркала? Тогда наш торрент специально для вас. Rutor.in неофициальное зеркало rutor. В случае если у Вас заблокирован rutor или вдруг Вы не можете на него зайти, то Вы без труда сможете скачать бесплатно и без рекламы последние новинки кино, игр, сериалов и прочего у нас, на Rutor.in. Не нужно использовать прокси, чтобы зайти на рутор, достаточно воспользоваться нашим ресурсом. Все новые фильмы, игры, сериалы, книги и музыка за 2013 и 2014 годы через торрент бесплатно. Скачивайте фильмы в хорошем качестве, игры для пк, xbox, playstation без регистрации. У нас вы найдете новые Зарубежные сериалы и Русские сериалы 2013, 2014, 2015 годов. Оставайтесь с нами, качайте любимые фильмы, игры, сериалы, книги и музыку.