img image001 image001 image001 image001 image001 image001 image001 image001 image001 image001 image001 image001 image001 image001 image001

Planets Sun Sun Sun
Статистика раздачи
Автор: Снежана | Размер: 699.67 МБ | Добавлен: 24 июл 2013
Раздают: 6    Качают: 2
Скачать торрент
Скачать торрент
Описание торрента

СообщениеДобавлено: 24 июл 2013 

Настоятель
(2010)
DVDRip-AVC от FREEISLAND




Информация о фильме
Название: Настоятель
Оригинальное название: Настоятель
Год выхода: 2010
Жанр: боевик, драма
Режиссер: Армен Назикян
В ролях: Егор Пазенко, Вадим Романов, Анна Табанина, Александр Аравушкин, Дмитрий Лебедев, Федор Колосов, Павел Миронов, Виталий Горев, Вадим Парфёнов, Николай Иванов

О фильме:
Убит священник, отец Михаил, настоятель церкви небольшого провинциального города. В город приезжает новый настоятель. Он хочет навести в городе порядок и свести к минимуму преступность. Единственное его оружие — слово Божие. Но всеми делами в городе заправляет некто Агафонов, очень богатый бизнесмен, сделавший состояние на торговле наркотиками. Агафонов и его боевики держат в страхе весь город, а вскоре они узнают о криминальном прошлом отца Андрея, который когда-то был известным питерским преступным авторитетом. Трагические события привели его к Богу, а помог ему именно отец Михаил.У Андрея нет выбора — в одиночку он начинает борьбу с людьми Агафонова.



Страна: Россия
Студия: Триикс Медиа
Продолжительность: 1 ч. 31 м. 8 с.
Перевод: Оригинал [Лицензия]
Навигация по главам: присутствует

Файл
Качество: DVDRip-AVC
Исходник: DVD5 R5
Контейнер: MKV
Видео кодек: x264 High10@L5.1 (счастливые обладатели бытовых динозавров гуляют лесом)
Аудио кодек: AC3
Видео: AVC at 880 Кбит/сек, 720x420 @ 768x420 (1.829) at 25.000 fps
Аудио: AC3 at 192 Кбит/сек, 2 канала(ов), 48,0 КГц

Общее
Уникальный идентификатор : 231160529249493699553820487095372553978 (0xADE7E605AE9644E3BC3D89A0F15D1EFA)
Полное имя : Настоятель (2010) DVDRip-AVC.mkv
Формат : Matroska
Версия формата : Version 2
Размер файла : 700 Мбайт
Продолжительность : 1 ч. 31 м.
Общий поток : 1073 Кбит/сек
Название фильма : релиз от FREEISLAND.ORG
Дата кодирования : UTC 2011-10-02 19:43:28
Программа кодирования : mkvmerge v5.0.0 ('Die Wahre Liebe') built on Sep 25 2011 20:33:49
Библиотека кодирования : libebml v1.2.2 + libmatroska v1.3.0

Видео
Идентификатор : 1
Формат : AVC
Формат/Информация : Advanced Video Codec
Профиль формата : High 10@L5.1
Параметр CABAC формата : Да
Параметр ReFrames формата : 16 кадров
Идентификатор кодека : V_MPEG4/ISO/AVC
Продолжительность : 1 ч. 31 м.
Битрейт : 880 Кбит/сек
Ширина : 720 пикселей
Высота : 420 пикселей
Соотношение сторон : 16:9
Частота кадров : 25,000 кадров/сек
Цветовое пространство : YUV
Субдискретизация насыщенности : 4:2:0
Битовая глубина : 10 бит
Тип развёртки : Прогрессивная
Бит/(Пиксели*Кадры) : 0.116
Размер потока : 561 Мбайт (80%)
Библиотека кодирования : x264 core 118 r2085+614 d1cc25d
Настройки программы : cabac=1 / ref=16 / deblock=1:-1:-1 / analyse=0x3:0x133 / me=umh / subme=11 / psy=1 / fade_compensate=0.00 / psy_rd=1.00:0.00 / mixed_ref=1 / me_range=64 / chroma_me=1 / trellis=2 / 8x8dct=1 / cqm=0 / deadzone=21,11 / fast_pskip=0 / chroma_qp_offset=-2 / threads=12 / sliced_threads=0 / nr=0 / decimate=1 / interlaced=0 / bluray_compat=0 / constrained_intra=0 / fgo=0 / bframes=11 / b_pyramid=2 / b_adapt=2 / b_bias=0 / direct=3 / weightb=1 / open_gop=0 / weightp=2 / keyint=250 / keyint_min=25 / scenecut=40 / intra_refresh=0 / rc=2pass / mbtree=0 / bitrate=880 / ratetol=1.0 / qcomp=1.00 / qpmin=0 / qpmax=54 / qpstep=4 / cplxblur=20.0 / qblur=0.5 / ip_ratio=1.40 / pb_ratio=1.30 / aq=1:1.00
Основные цвета : BT.601-6 525, BT.1358 525, BT.1700 NTSC, SMPTE 170M
Характеристики трансфера : BT.601-6 525, BT.601-6 625, BT.1358 525, BT.1358 625, BT.1700 NTSC, SMPTE 170M
Коэффициенты матрицы : BT.601-6 525, BT.1358 525, BT.1700 NTSC, SMPTE 170M

Аудио
Идентификатор : 2
Формат : AC-3
Формат/Информация : Audio Coding 3
Расширение режима : CM (complete main)
Идентификатор кодека : A_AC3
Продолжительность : 1 ч. 31 м.
Вид битрейта : Постоянный
Битрейт : 192 Кбит/сек
Каналы : 2 канала
Расположение каналов : Front: L R
Частота : 48,0 КГц
Битовая глубина : 16 бит
Метод сжатия : С потерями
Размер потока : 125 Мбайт (18%)
Язык : Russian

Меню
00:00:00.000 : :01
00:10:00.960 : :02
00:17:45.120 : :03
00:24:52.800 : :04
00:32:24.960 : :05
00:39:08.640 : :06
00:46:00.960 : :07
00:53:25.920 : :08
01:00:25.920 : :09
01:07:31.680 : :10
01:15:49.440 : :11
01:24:32.640 : :12













Релиз от:

Если у вас возникают вопросы типа:
-почему у меня есть звук и отсутствует изображение?
-почему у меня рассыпается картинка?
-почему у меня картинка фонит синевой или зеленью?
-зачем и кому всё это нужно?
и тому подобные, читаем мой FAQ.
Упс, а ссылку на мой FAQ вы не увидите, запрещено правилами.

По этому, забиваем в строку поиска гугля название спойлера (Что такое 10-ти битное видео (High 10 Profile - Hi10P), и как его смотреть?), и в первых результатах поиска будет вам ссыль на мой FAQ.



   Похожие торренты   Торрент   Размер 
В этой теме нет новых непрочитанных сообщений. Настоятель 2 (2011) DVDRip-AVC [Hi10P] от FREEISLAND

2 | 3

699.78 МБ

В этой теме нет новых непрочитанных сообщений. Настоятель (2010) DVDRip от Generalfilm

107 | 18

1.37 ГБ

В этой теме нет новых непрочитанных сообщений. Настоятель: Дилогия (2010-2011) DVВRip-AVC

39 | 19

4.52 ГБ

В этой теме нет новых непрочитанных сообщений. Настоятель 2 (2011) DVDRip

96 | 9

1.37 ГБ

В этой теме нет новых непрочитанных сообщений. Настоятель 2 (2011) DVDRip | КПК от Kino@rena

1 | 3

289.5 МБ

В этой теме нет новых непрочитанных сообщений. Настоятель 2 (2011) DVB

5 | 2

2.88 ГБ

В этой теме нет новых непрочитанных сообщений. Настоятель 2 (2011) DVD5

2 | 3

3.81 ГБ




Вы не можете начинать темы
Вы не можете отвечать на сообщения
Вы не можете редактировать свои сообщения
Вы не можете удалять свои сообщения
Вы не можете добавлять вложения

Перейти:  
Для Мосгорсуда, Роскомнадзора и рекламодателей: mosgorsud-torrent[собачка]yandex.ru
 Вход
ppkBB3cker v.2 © 2008-2014 @ PPK
[ Time : 0.041s | 15 Queries | GZIP : Off ]

Торрент трекер RUTOR.IN, Не можете зайти на rutor.org? Какой новый адрес рутор? Какое зеркало рутор? Не работает rutor.org и зеркала? Тогда наш торрент специально для вас. Rutor.in неофициальное зеркало rutor. В случае если у Вас заблокирован rutor или вдруг Вы не можете на него зайти, то Вы без труда сможете скачать бесплатно и без рекламы последние новинки кино, игр, сериалов и прочего у нас, на Rutor.in. Не нужно использовать прокси, чтобы зайти на рутор, достаточно воспользоваться нашим ресурсом. Все новые фильмы, игры, сериалы, книги и музыка за 2013 и 2014 годы через торрент бесплатно. Скачивайте фильмы в хорошем качестве, игры для пк, xbox, playstation без регистрации. У нас вы найдете новые Зарубежные сериалы и Русские сериалы 2013, 2014, 2015 годов. Оставайтесь с нами, качайте любимые фильмы, игры, сериалы, книги и музыку.
cron