img image001 image001 image001 image001 image001 image001 image001 image001 image001 image001 image001 image001 image001 image001 image001

Planets Sun Sun Sun
Статистика раздачи
Автор: Снежана | Размер: 1.37 ГБ | Добавлен: 24 июл 2013
Раздают: 0    Качают: 2
Скачать торрент
Скачать торрент
Описание торрента

СообщениеДобавлено: 24 июл 2013 

#77

Информация о фильме
Название: Турандот
Оригинальное название: Турандот
Год выхода: 2010
Жанр: Кинофантазия с песнями, клоунадой и иллюзионом, мюзикл
Режиссер: Вадим Карев
В ролях: Ма Сяоянь, Рашид Исмаилов, Чжанг Жайбо, Анастасия Кузнецова, Евгения Артемьева, Ольга Рамина, Вадим Белявский, Евгений Сверчков и др.

О фильме: Красочный музыкальный фильм по мотивам комедии Карло Гоцци.
Дополнительные материалы: Фильм о съёмках фильма "Турандот"

Выпущено: ПТС.РУ специально для "Технокомпания Хуавей", Россия
Продолжительность: 01:15:04

Файл
Качество: DVDRip
Видео: XviD, 720x576 (anamorphic PAL 16:9) -> 720x405 (1024x576), 25 fps, 2443 kbps, 0.236 bit/(pixel*frame)
Аудио: MP3, 160 kbps CBR, 2.0 chan (Joint Stereo), 48 kHz
Общее
Полное имя : Turandot.DVDRip.2010.avi
Формат : AVI
Формат/Информация : Audio Video Interleave
Размер файла : 1,37 Гбайт
Продолжительность : 1 ч. 15 м.
Общий поток : 2616 Кбит/сек

Видео
Идентификатор : 0
Формат : MPEG-4 Visual
Профиль формата : Simple@L3
Параметр BVOP формата : Нет
Параметр QPel формата : Нет
Параметр GMC формата : Без точки перехода
Параметр матрицы формата : Default (H.263)
Идентификатор кодека : XVID
Идентификатор кодека/Подсказка : XviD
Продолжительность : 1 ч. 15 м.
Битрейт : 2443 Кбит/сек
Ширина : 720 пикселей
Высота : 576 пикселей
Соотношение сторон : 16:9
Частота кадров : 25,000 кадров/сек
Стандарт вещания : PAL
Цветовое пространство : YUV
Субдискретизация насыщенности : 4:2:0
Битовая глубина : 8 бит
Тип развёртки : Прогрессивная
Метод сжатия : С потерями
Бит/(Пиксели*Кадры) : 0.236
Размер потока : 1,28 Гбайт (93%)
Библиотека кодирования : XviD 1.1.2 (UTC 2006-11-01)

Аудио
Идентификатор : 1
Формат : MPEG Audio
Версия формата : Version 1
Профиль формата : Layer 3
Режим : Joint stereo
Идентификатор кодека : 55
Идентификатор кодека/Подсказка : MP3
Продолжительность : 1 ч. 15 м.
Вид битрейта : Постоянный
Битрейт : 160 Кбит/сек
Каналы : 2 канала
Частота : 48,0 КГц
Метод сжатия : С потерями
Размер потока : 85,9 Мбайт (6%)
Выравнивание : Разделение по промежуткам
Продолжительность промежутка : 24 мс. (0,60 видеокадр)

Скриншоты:



   Похожие торренты   Торрент   Размер 
В этой теме нет новых непрочитанных сообщений. Принцесса Турандот (1971) DVDRip от Кинорадиомагия

224 | 98

1.37 ГБ

В этой теме нет новых непрочитанных сообщений. Хрустальный бал. Хрустальной Турандот в честь Владимира Этуша (2012) IPTVRip от Files-x

0 | 2

902.3 МБ

В этой теме нет новых непрочитанных сообщений. Каннские львы 2010 / Cannes Lions 2010 (2010) DVDRip

154 | 14

1.37 ГБ

В этой теме нет новых непрочитанных сообщений. Моби Дик: Охота на монстра / 2010: Moby Dick (2010) DVDRip | Лицензия

74 | 14

1.46 ГБ

В этой теме нет новых непрочитанных сообщений. Рыцарь дорог 2010 / Knight rider 2010 (1994) DVDRip

108 | 10

697.39 МБ

В этой теме нет новых непрочитанных сообщений. Тамала 2010 / Tamala 2010: A Punk Cat in Space (2002) DVDRip от KinoRay & Sheikn | A

71 | 18

701.57 МБ

В этой теме нет новых непрочитанных сообщений. Татьяна и Сергей Никитины - Концерт в Доме музыки 27 февраля 2010 год (2010) DVDRip от Youtracker

14 | 4

1.46 ГБ




Вы не можете начинать темы
Вы не можете отвечать на сообщения
Вы не можете редактировать свои сообщения
Вы не можете удалять свои сообщения
Вы не можете добавлять вложения

Перейти:  
Для Мосгорсуда, Роскомнадзора и рекламодателей: mosgorsud-torrent[собачка]yandex.ru
 Вход
ppkBB3cker v.2 © 2008-2014 @ PPK
[ Time : 0.026s | 14 Queries | GZIP : Off ]

Торрент трекер RUTOR.IN, Не можете зайти на rutor.org? Какой новый адрес рутор? Какое зеркало рутор? Не работает rutor.org и зеркала? Тогда наш торрент специально для вас. Rutor.in неофициальное зеркало rutor. В случае если у Вас заблокирован rutor или вдруг Вы не можете на него зайти, то Вы без труда сможете скачать бесплатно и без рекламы последние новинки кино, игр, сериалов и прочего у нас, на Rutor.in. Не нужно использовать прокси, чтобы зайти на рутор, достаточно воспользоваться нашим ресурсом. Все новые фильмы, игры, сериалы, книги и музыка за 2013 и 2014 годы через торрент бесплатно. Скачивайте фильмы в хорошем качестве, игры для пк, xbox, playstation без регистрации. У нас вы найдете новые Зарубежные сериалы и Русские сериалы 2013, 2014, 2015 годов. Оставайтесь с нами, качайте любимые фильмы, игры, сериалы, книги и музыку.