img image001 image001 image001 image001 image001 image001 image001 image001 image001 image001 image001 image001 image001 image001 image001

Planets Sun Sun Sun
Статистика раздачи
Автор: Снежана | Размер: 4.37 ГБ | Добавлен: 24 июл 2013
Раздают: 54    Качают: 5
Скачать торрент
Скачать торрент
Описание торрента

СообщениеДобавлено: 24 июл 2013 


Информация о фильме
Название: Как я провёл этим летом
Год выхода: 2010
Жанр: Триллер
Режиссер: Алексей Попогребский
В ролях: Григорий Добрыгин, Сергей Пускепалис, Игорь Черневич, Илья Соболев, Артём Цуканов

О фильме:
Начальник полярной станции Сергей и молодой стажер Павел — одни на острове в Северном ледовитом океане. Подходит к концу их вахта. Впервые за много лет Сергей окажется на материке, где его дожидается семья. Окончится летняя практика Павла, а он не испытал и сотой доли тех приключений, на которые рассчитывал, отправляясь в Заполярье. Единственный канал общения с миром — неустойчивая радиосвязь с центральной базой. В отсутствие Сергея приходит сообщение, с которым Павел попросту не знает, как поступить. Он надеется, что скоро за ними придет теплоход и тогда все разрешится само собой. Но на Крайнем Севере возможно всё. И иногда приходится выбирать между своей жизнью и жизнью другого…



Страна: Россия
Продолжительность: 02:04:22

Файл
Кодек: x264
Качество: 1080p
Видео: 1920x1040, 25.000 fps, 4571 kbps (источник: Blu-ray Disc)
Звук: 48 kHz, AC-3, 6 ch, 448 kbps
Complete name : Kak.Ya.Provel.Etim.Letom.2010.BDRip.1080p.Rus.mkv
Format : Matroska
File size : 4.37 GiB
Duration : 2h 4mn
Overall bit rate : 5 019 Kbps

Video
Format : AVC
Format/Info : Advanced Video Codec
Format profile : High@L4.1
Format settings, CABAC : Yes
Format settings, ReFrames : 5 frames
Codec ID : V_MPEG4/ISO/AVC
Duration : 2h 4mn
Bit rate : 4 571 Kbps
Width : 1 920 pixels
Height : 1 040 pixels
Display aspect ratio : 16:9
Frame rate : 25.000 fps
Color space : YUV
Chroma subsampling : 4:2:0
Bit depth : 8 bits
Scan type : Progressive
Bits/(Pixel*Frame) : 0.092
Stream size : 3.89 GiB (89%)
Writing library : x264 core 118 r2085 8a62835
Encoding settings : cabac=1 / ref=5 / deblock=1:0:0 / analyse=0x3:0x113 / me=umh / subme=11 / psy=1 / psy_rd=1.00:0.10 / mixed_ref=1 / me_range=32 / chroma_me=1 / trellis=2 / 8x8dct=1 / cqm=0 / deadzone=21,11 / fast_pskip=0 / chroma_qp_offset=-3 / threads=6 / sliced_threads=0 / nr=0 / decimate=1 / interlaced=0 / bluray_compat=0 / constrained_intra=0 / bframes=5 / b_pyramid=2 / b_adapt=2 / b_bias=0 / direct=3 / weightb=1 / open_gop=0 / weightp=2 / keyint=250 / keyint_min=25 / scenecut=40 / intra_refresh=0 / rc_lookahead=50 / rc=2pass / mbtree=1 / bitrate=4571 / ratetol=1.0 / qcomp=0.60 / qpmin=0 / qpmax=69 / qpstep=4 / cplxblur=20.0 / qblur=0.5 / vbv_maxrate=50000 / vbv_bufsize=50000 / nal_hrd=none / ip_ratio=1.40 / aq=1:1.00

Audio
Format : AC-3
Format/Info : Audio Coding 3
Mode extension : CM (complete main)
Codec ID : A_AC3
Duration : 2h 4mn
Bit rate mode : Constant
Bit rate : 448 Kbps
Channel(s) : 6 channels
Channel positions : Front: L C R, Side: L R, LFE
Sampling rate : 48.0 KHz
Bit depth : 16 bits
Compression mode : Lossy
Stream size : 399 MiB (9%)

Menu
00:00:00.000 : :Chapter 01
00:06:34.199 : :Chapter 02
00:14:23.519 : :Chapter 03
00:20:23.839 : :Chapter 04
00:26:18.000 : :Chapter 05
00:34:27.000 : :Chapter 06
00:40:54.719 : :Chapter 07
00:47:09.879 : :Chapter 08
00:54:12.519 : :Chapter 09
01:00:14.719 : :Chapter 10
01:07:47.680 : :Chapter 11
01:13:21.759 : :Chapter 12
01:21:00.479 : :Chapter 13
01:26:33.159 : :Chapter 14
01:33:41.839 : :Chapter 15
01:40:02.000 : :Chapter 16
01:45:57.439 : :Chapter 17
01:53:06.320 : :Chapter 18
02:04:22.559 : :Chapter 19


Скачать Семпл
Релиз от: Bigsam



   Похожие торренты   Торрент   Размер 
В этой теме нет новых непрочитанных сообщений. Как я провёл этим летом (2010) BDRip 1080p от FireBit

0 | 3

7.3 ГБ

В этой теме нет новых непрочитанных сообщений. Как я провёл этим летом (2010) BDRip-AVC от FireBit

0 | 2

2.18 ГБ

В этой теме нет новых непрочитанных сообщений. Как я провёл этим летом (2010) BDRip от HQCLUB

28 | 3

2.18 ГБ

В этой теме нет новых непрочитанных сообщений. Как я провёл этим летом (2010) BDRip 720p от FireBit

3 | 3

3.28 ГБ

В этой теме нет новых непрочитанных сообщений. Как я провёл этим летом (2010) BDRip 720p от HQ-ViDEO

214 | 8

5.02 ГБ

В этой теме нет новых непрочитанных сообщений. Как я провёл этим летом (2010) HDRip

127 | 9

1.38 ГБ

В этой теме нет новых непрочитанных сообщений. Как я провёл этим летом (2010) HDRip

121 | 3

2.04 ГБ




Вы не можете начинать темы
Вы не можете отвечать на сообщения
Вы не можете редактировать свои сообщения
Вы не можете удалять свои сообщения
Вы не можете добавлять вложения

Перейти:  
Для Мосгорсуда, Роскомнадзора и рекламодателей: mosgorsud-torrent[собачка]yandex.ru
 Вход
ppkBB3cker v.2 © 2008-2014 @ PPK
[ Time : 0.037s | 14 Queries | GZIP : Off ]

Торрент трекер RUTOR.IN, Не можете зайти на rutor.org? Какой новый адрес рутор? Какое зеркало рутор? Не работает rutor.org и зеркала? Тогда наш торрент специально для вас. Rutor.in неофициальное зеркало rutor. В случае если у Вас заблокирован rutor или вдруг Вы не можете на него зайти, то Вы без труда сможете скачать бесплатно и без рекламы последние новинки кино, игр, сериалов и прочего у нас, на Rutor.in. Не нужно использовать прокси, чтобы зайти на рутор, достаточно воспользоваться нашим ресурсом. Все новые фильмы, игры, сериалы, книги и музыка за 2013 и 2014 годы через торрент бесплатно. Скачивайте фильмы в хорошем качестве, игры для пк, xbox, playstation без регистрации. У нас вы найдете новые Зарубежные сериалы и Русские сериалы 2013, 2014, 2015 годов. Оставайтесь с нами, качайте любимые фильмы, игры, сериалы, книги и музыку.