img image001 image001 image001 image001 image001 image001 image001 image001 image001 image001 image001 image001 image001 image001 image001

Planets Sun Sun Sun
Статистика раздачи
Автор: Снежана | Размер: 1.51 ГБ | Добавлен: 24 июл 2013
Раздают: 38    Качают: 14
Скачать торрент
Скачать торрент
Описание торрента

СообщениеДобавлено: 24 июл 2013 

Подземелье ведьм (1989) DVDRip-AVC
от [COLOR="#C71585"]Zarraza[/COLOR]



Информация о фильме
Оригинальное название: Подземелье ведьм
Год выхода: 1989
Жанр: фантастика, боевик
Режиссер: Юрий Мороз
В ролях: Сергей Жигунов, Марина Левтова, Николай Караченцов, Дмитрий Певцов, Игорь Ясулович, Жанна Прохоренко, Владимир Талашко, Сергей Быстрицкий, Анатолий Мамбетов, Леонид Громов, Виллор Кузнецов, Наталья Каменская, Леонид Филаткин, Вячеслав Ковальков, Андрей Леонов
О фильме: Корабль дальних космических исследований "Титан" направляется с Земли к планете КС 63/12 "ЭВУР" - "ЭВолюционный УРод". На планете нарушены законы эволюции: одновременно существуют виды животных разных исторических эпох. Полудикие племена кочевников ведут постоянную междоусобную войну. На Эвуре также находится база земной этнографической экспедиции. Ее руководитель Конрад Жмунда пошел на прямые контакты с племенами, что категорически запрещено инструкцией. И тогда с "Титана" на Эвур посылают инспектора по контактам Андрея Брюса, которому также предстоит выяснить, откуда на планете бетонные дороги, над которыми летают птеродактили, и стальные мечи у дикарей каменного века. Но вскоре после его прибытия на базу землян нападает племя, возглавляемое кровожадным Октином Хашем. Четверо землян убиты, а двое взяты в плен. Их хотят принести в жертву каким-то "ведьмам"...



Автор рипа: Zarraza

Выпущено: СССР, Чехословакия
Продолжительность: 01:20:43
Субтитры: нет

Файл:
Формат: MKV
Качество: DVDRip-AVC (источник: Basilevs / DVD-5 / 576p)
Видео: 704x400 (1.76:1), 25 fps, H264 ~2100 kbps avg
Аудио 1: 48 kHz, AC3 Dolby Digital, 3/2 (L,C,R,l,r) + LFE ch, ~384.00 kbps avg
Аудио 2: 48 kHz, AC3 Dolby Digital, 1/0 (C), ~192.00 kbps avg (Отдельно)


Формат : Matroska
Версия формата : Version 2
Размер файла : 1,40 Гбайт
Продолжительность : 1 ч. 20 м.
Общий поток : 2484 Кбит/сек
Дата кодирования : UTC 2011-10-15 18:18:40
Программа кодирования : mkvmerge v3.4.0 ('Rapunzel') сборка от May 15 2010 09:38:20
Библиотека кодирования : libebml v0.8.0 + libmatroska v0.9.0

Видео
Идентификатор : 1
Формат : AVC
Формат/Информация : Advanced Video Codec
Профиль формата : High@L3.0
Параметр CABAC формата : Да
Параметр ReFrames формата : 6 кадров
Параметр GOP формата : N=1
Идентификатор кодека : V_MPEG4/ISO/AVC
Продолжительность : 1 ч. 20 м.
Битрейт : 2100 Кбит/сек
Ширина : 704 пикселя
Высота : 400 пикселей
Соотношение сторон : 16:9
Частота кадров : 25,000 кадров/сек
Цветовое пространство : YUV
Субдискретизация насыщенности : 4:2:0
Битовая глубина : 8 бит
Тип развёртки : Прогрессивная
Бит/(Пиксели*Кадры) : 0.298
Размер потока : 1,16 Гбайт (83%)
Библиотека кодирования : x264 core 75 r1251kMod e553a4c
Настройки программы : cabac=1 / ref=6 / deblock=1:-1:-1 / analyse=0x3:0x133 / me=umh / subme=7 / psy=1 / psy_rd=1.0:0.0 / mixed_ref=1 / me_range=16 / chroma_me=1 / trellis=2 / 8x8dct=1 / cqm=0 / deadzone=21,11 / chroma_qp_offset=-2 / threads=12 / nr=0 / decimate=1 / mbaff=0 / bframes=3 / b_pyramid=0 / b_adapt=2 / b_bias=0 / direct=1 / wpredb=1 / keyint=250 / keyint_min=25 / scenecut=40 / rc_lookahead=40 / rc=abr / mbtree=1 / bitrate=2100 / ratetol=1.0 / qcomp=0.60 / qpmin=10 / qpmax=51 / qpstep=4 / ip_ratio=1.40 / aq=1:1.00

Аудио
Идентификатор : 2
Формат : AC-3
Формат/Информация : Audio Coding 3
Расширение режима : CM (complete main)
Идентификатор кодека : A_AC3
Продолжительность : 1 ч. 20 м.
Вид битрейта : Постоянный
Битрейт : 384 Кбит/сек
Каналы : 6 каналов
Расположение каналов : Front: L C R, Side: L R, LFE
Частота : 48,0 КГц
Битовая глубина : 16 бит
Метод сжатия : С потерями
Размер потока : 222 Мбайт (15%)



   Похожие торренты   Торрент   Размер 
В этой теме нет новых непрочитанных сообщений. Подземелье ведьм (1989) DVDRip | Реставрация

56 | 6

1.46 ГБ

В этой теме нет новых непрочитанных сообщений. Ловушка для ведьм / Witchtrap (1989) DVDRip | A

94 | 14

1.47 ГБ

В этой теме нет новых непрочитанных сообщений. Ловушка для ведьм / Witchtrap (1989) BDRip | A

102 | 24

1.46 ГБ

В этой теме нет новых непрочитанных сообщений. Ширли-Мырли (1995) DVDRip-AVC от Zarraza

37 | 7

2.53 ГБ

В этой теме нет новых непрочитанных сообщений. Обнаженная в шляпе (1991) DVDRip-AVC от Zarraza

4 | 6

1.1 ГБ

В этой теме нет новых непрочитанных сообщений. Государственная граница (1980-1988) DVDRip-AVC от Zarraza

47 | 27

19.68 ГБ

В этой теме нет новых непрочитанных сообщений. Неуловимые мстители. Трилогия (1966-1971) DVDRip-AVC от Zarraza

315 | 51

4.99 ГБ




Вы не можете начинать темы
Вы не можете отвечать на сообщения
Вы не можете редактировать свои сообщения
Вы не можете удалять свои сообщения
Вы не можете добавлять вложения

Перейти:  
Для Мосгорсуда, Роскомнадзора и рекламодателей: mosgorsud-torrent[собачка]yandex.ru
 Вход
ppkBB3cker v.2 © 2008-2014 @ PPK
[ Time : 0.032s | 16 Queries | GZIP : Off ]

Торрент трекер RUTOR.IN, Не можете зайти на rutor.org? Какой новый адрес рутор? Какое зеркало рутор? Не работает rutor.org и зеркала? Тогда наш торрент специально для вас. Rutor.in неофициальное зеркало rutor. В случае если у Вас заблокирован rutor или вдруг Вы не можете на него зайти, то Вы без труда сможете скачать бесплатно и без рекламы последние новинки кино, игр, сериалов и прочего у нас, на Rutor.in. Не нужно использовать прокси, чтобы зайти на рутор, достаточно воспользоваться нашим ресурсом. Все новые фильмы, игры, сериалы, книги и музыка за 2013 и 2014 годы через торрент бесплатно. Скачивайте фильмы в хорошем качестве, игры для пк, xbox, playstation без регистрации. У нас вы найдете новые Зарубежные сериалы и Русские сериалы 2013, 2014, 2015 годов. Оставайтесь с нами, качайте любимые фильмы, игры, сериалы, книги и музыку.