img image001 image001 image001 image001 image001 image001 image001 image001 image001 image001 image001 image001 image001 image001 image001

Planets Sun Sun Sun
Статистика раздачи
Автор: Снежана | Размер: 2.17 ГБ | Добавлен: 24 июл 2013
Раздают: 3    Качают: 3
Скачать торрент
Скачать торрент
Описание торрента

СообщениеДобавлено: 24 июл 2013 



Информация о фильме
Название: Райское яблочко
Год выхода: 1998
Жанр: Комедия, мелодрама
Режиссер: Роман Ершов
В ролях: Олег Янковский, Виктория Туникайте, Ольга Спиридонова, Ирина Пономарева, Анатолий Кузнецов, Евгений Моргунов, Ольга Волкова, Сергей Никоненко, Наталья Гундарева

О фильме:
Притчевая история одного карьерного возвышения. В закрытый пансионат для высшего руководства на должность горничной принимают новенькую - смазливую блондинку Анечку, победительницу конкурса красоты среди буфетчиц. Трудовым коллективом этой благополучной обители ловко управляет хозяйка пансионата. Сначала, как водится, Аню "проверяют" и, признав за свою, расслабляются. А девочка не так проста, и у нее далеко идущие планы...

Страна: Россия
Производство: Есенинский культ.центр при участии Госкино РФ, ВГТРК
Продолжительность: 01:24:00

Файл
Кодек: H264
Качество: TVRip
Видео: 688 x 416 (1.654) at 25.000 fps/AVI at 3686 Кбит/сек
Звук: MPEG Audio at 320 Кбит/сек/2 канала(ов), 44,1 КГц

MediaInfo
Видео
Идентификатор : 0
Формат : AVC
Формат/Информация : Advanced Video Codec
Профиль формата : Baseline@L3.0
Параметр CABAC формата : Нет
Параметр ReFrames формата : 1 кадр
Идентификатор кодека : H264
Продолжительность : 1 ч. 24 м.
Вид битрейта : Переменный
Битрейт : 3354 Кбит/сек
Максимальный битрейт : 4825 Кбит/сек
Ширина : 688 пикс.
Высота : 416 пикс.
Соотношение сторон : 1,654
Частота кадров : 25,000 кадр/сек
Частота кадров в оригинале : 24,000 кадр/сек
Цветовое пространство : YUV
Подвыборка цветности : 4:2:0
Битовая глубина : 8 бит
Тип развёртки : Прогрессивная
Бит/(Пиксели*Кадры) : 0.469
Размер потока : 1,97 Гбайт (91%)

Аудио
Идентификатор : 1
Формат : MPEG Audio
Версия формата : Version 1
Профиль формата : Layer 3
Режим : Joint stereo
Идентификатор кодека : 55
Идентификатор кодека/Подсказка : MP3
Продолжительность : 1 ч. 24 м.
Вид битрейта : Постоянный
Битрейт : 320 Кбит/сек
Канал(ы) : 2 канала(ов)
Частота : 44,1 КГц
Метод сжатия : С потерями
Размер потока : 193 Мбайт (9%)
Выравнивание : Соединение по промежуткам
Продолжительность промежутка : 26 мс. (0,65 видеокадр)
Время предзагрузки промежутка : 26 ms
Библиотека кодирования : LAME3.97Є





















   Похожие торренты   Торрент   Размер 
В этой теме нет новых непрочитанных сообщений. Райское яблочко (1998) DVDRip

64 | 6

1.46 ГБ

В этой теме нет новых непрочитанных сообщений. Футбол. Лига Чемпионов 1997-1998. Барселона (Испания) - Динамо (Киев) (1998) TVRip

0 | 4

624.86 МБ

В этой теме нет новых непрочитанных сообщений. КВН-1998. Высшая лига. Утешительная игра (1998) TVRip

0 | 2

953.6 МБ

В этой теме нет новых непрочитанных сообщений. В яблочко! / Bullseye! (1990) DVD9 от Brazzass

6 | 3

7.02 ГБ

В этой теме нет новых непрочитанных сообщений. В яблочко! / Bullseye! (1990) DVDRip-AVC от BT-Club

15 | 3

1.72 ГБ

В этой теме нет новых непрочитанных сообщений. Бо Ба Бу / Bo Ba Bu (1998) TVRip

37 | 66

474.03 МБ

В этой теме нет новых непрочитанных сообщений. Перекресток (1998) TVRip

18 | 5

1.71 ГБ




Вы не можете начинать темы
Вы не можете отвечать на сообщения
Вы не можете редактировать свои сообщения
Вы не можете удалять свои сообщения
Вы не можете добавлять вложения

Перейти:  
Для Мосгорсуда, Роскомнадзора и рекламодателей: mosgorsud-torrent[собачка]yandex.ru
 Вход
ppkBB3cker v.2 © 2008-2014 @ PPK
[ Time : 2.307s | 14 Queries | GZIP : On ]

Торрент трекер RUTOR.IN, Не можете зайти на rutor.org? Какой новый адрес рутор? Какое зеркало рутор? Не работает rutor.org и зеркала? Тогда наш торрент специально для вас. Rutor.in неофициальное зеркало rutor. В случае если у Вас заблокирован rutor или вдруг Вы не можете на него зайти, то Вы без труда сможете скачать бесплатно и без рекламы последние новинки кино, игр, сериалов и прочего у нас, на Rutor.in. Не нужно использовать прокси, чтобы зайти на рутор, достаточно воспользоваться нашим ресурсом. Все новые фильмы, игры, сериалы, книги и музыка за 2013 и 2014 годы через торрент бесплатно. Скачивайте фильмы в хорошем качестве, игры для пк, xbox, playstation без регистрации. У нас вы найдете новые Зарубежные сериалы и Русские сериалы 2013, 2014, 2015 годов. Оставайтесь с нами, качайте любимые фильмы, игры, сериалы, книги и музыку.