img image001 image001 image001 image001 image001 image001 image001 image001 image001 image001 image001 image001 image001 image001 image001

Planets Sun Sun Sun
Статистика раздачи
Автор: Снежана | Размер: 4.37 ГБ | Добавлен: 24 июл 2013
Раздают: 1    Качают: 6
Скачать торрент
Скачать торрент
Описание торрента

СообщениеДобавлено: 24 июл 2013 

#77

Информация о фильме
Название: Тариф Новогодний
Год выхода: 2009
Жанр: фэнтези, комедия
Режиссер: Евгений Бедарев
В ролях: Валерия Ланская, Максим Матвеев, Екатерина Маликова, Евгений Славский, Мария Аронова, Дмитрий Дюжев, Мирослава Карпович, Михаил Пореченков, Роман Полянский, Валерий Меладзе, Татьяна Васильева, Анастасия Цветаева, Марк Богатырев, Нонна Гришаева, Борис Корчевников, Станислав Беляев, Лана Щербакова, Татьяна Орлова, Владимир Крылов, Юрий Цурило, Федор Добронравов

О фильме:
Новогодняя ночь всегда полна чудес и сюрпризов. Чудеса нашего времени часто происходят благодаря техническому прогрессу, хотя и не без участия Деда Мороза, который нынче может оказаться простым продавцом телефона Мечты…
Так и у героев этой истории: Андрей купил новый телефон, а под бой курантов набрал наугад номер, чтобы поздравить с Новым годом совершенно незнакомого человека — такая у них была традиция с друзьями на Новый год. Набрал номер — и позвонил Алене, которая оказалась в… другом времени. В момент, когда Андрей перешел из 2008 в 2009, у Алены 2007 сменился на 2008.
Но понимают это молодые люди не сразу, ведь сначала они просто перезваниваются, пытаются встретиться, и всякий раз не находят друг друга. "Временной сдвиг" не мешает их роману: они обмениваются ММС, пока Андрею не приходит в голову, что он может найти девушку — ту прошлогоднюю Алену, которая с ним еще не познакомилась. И обнаруживает, что она погибла в страшной аварии как раз в новогоднюю ночь 2009 года. Теперь задача влюбленных — с помощью друзей предотвратить автокатастрофу. Алена находит в своем времени друзей Андрея, рассказывает им невероятную историю, и ребята приступают к изменению "пространственно-временного континуума".
Но не так-то просто, оказывается, выдержать поединок с Судьбой, которая менять свои предначертания никак не желает…



Страна: Россия
Продолжительность: 01:26:08
Перевод: Оригинал

Файл
Кодек: H264
Качество: BDRip 1080p
Видео: 1920x816, 6 629 Kbps, 23.976 fps
Звук: 48 kHz, AC3, 6c, 640.00 kbps
Субтитры: Нет

Семпл



General
Format : Matroska
File size : 4.37 GiB
Duration : 1h 26mn
Overall bit rate : 7 266 Kbps
Movie name : Тариф Новогодний (2008) BDRip 1080p от Dimok
Encoded date : UTC 2011-11-01 22:20:35
Writing application : mkvmerge v5.0.1 ('Es ist Sommer') built on Oct 9 2011 11:55:43
Writing library : libebml v1.2.2 + libmatroska v1.3.0
Video #1
ID : 1
Format : AVC
Format/Info : Advanced Video Codec
Format profile : High@L4.0
Format settings, CABAC : Yes
Format settings, ReFrames : 4 frames
Codec ID : V_MPEG4/ISO/AVC
Duration : 1h 26mn
Bit rate : 6 629 Kbps
Width : 1 920 pixels
Height : 816 pixels
Display aspect ratio : 2.35:1
Frame rate : 23.976 fps
Color space : YUV
Chroma subsampling : 4:2:0
Bit depth : 8 bits
Scan type : Progressive
Bits/(Pixel*Frame) : 0.176
Stream size : 3.90 GiB (89%)
Writing library : x264 core 92 r1510 33d382a
Encoding settings : cabac=1 / ref=4 / deblock=1:1:0 / analyse=0x3:0x133 / me=umh / subme=10 / psy=1 / psy_rd=1.00:0.10 / mixed_ref=1 / me_range=32 / chroma_me=1 / trellis=2 / 8x8dct=1 / cqm=0 / deadzone=21,11 / fast_pskip=0 / chroma_qp_offset=-3 / threads=6 / sliced_threads=0 / nr=0 / decimate=1 / interlaced=0 / constrained_intra=0 / bframes=4 / b_pyramid=2 / b_adapt=2 / b_bias=0 / direct=3 / wpredb=1 / wpredp=2 / keyint=250 / keyint_min=25 / scenecut=40 / intra_refresh=0 / rc_lookahead=50 / rc=2pass / mbtree=1 / bitrate=6629 / ratetol=1.0 / qcomp=0.60 / qpmin=10 / qpmax=51 / qpstep=4 / cplxblur=20.0 / qblur=0.5 / ip_ratio=1.40 / aq=1:1.00
Language : English
Audio #2
ID : 2
Format : AC-3
Format/Info : Audio Coding 3
Mode extension : CM (complete main)
Codec ID : A_AC3
Duration : 1h 26mn
Bit rate mode : Constant
Bit rate : 640 Kbps
Channel(s) : 6 channels
Channel positions : Front: L C R, Side: L R, LFE
Sampling rate : 48.0 KHz
Bit depth : 16 bits
Compression mode : Lossy
Stream size : 394 MiB (9%)
Title : Оригинал
Language : Russian



   Похожие торренты   Торрент   Размер 
В этой теме нет новых непрочитанных сообщений. Тариф Новогодний (2008) BDRip 1080p | Лицензия

26 | 6

7.53 ГБ

В этой теме нет новых непрочитанных сообщений. Тариф Новогодний (2008) BDRip от M.I.B

1 | 3

1.46 ГБ

В этой теме нет новых непрочитанных сообщений. Тариф Новогодний (2008) BDRip от HQCLUB

7 | 4

1.45 ГБ

В этой теме нет новых непрочитанных сообщений. Тариф Новогодний (2008) BDRip от HELLYWOOD

30 | 5

1.45 ГБ

В этой теме нет новых непрочитанных сообщений. Тариф Новогодний (2008) BDRip-AVC от HQ-ViDEO

19 | 4

2.07 ГБ

В этой теме нет новых непрочитанных сообщений. Тариф Новогодний (2008) BDRip-AVC от potroks

387 | 21

2.2 ГБ

В этой теме нет новых непрочитанных сообщений. Тариф Новогодний (2008) BDRip от HQ-ViDEO

57 | 2

1.46 ГБ




Вы не можете начинать темы
Вы не можете отвечать на сообщения
Вы не можете редактировать свои сообщения
Вы не можете удалять свои сообщения
Вы не можете добавлять вложения

Перейти:  
Для Мосгорсуда, Роскомнадзора и рекламодателей: mosgorsud-torrent[собачка]yandex.ru
 Вход
ppkBB3cker v.2 © 2008-2014 @ PPK
[ Time : 0.019s | 14 Queries | GZIP : On ]

Торрент трекер RUTOR.IN, Не можете зайти на rutor.org? Какой новый адрес рутор? Какое зеркало рутор? Не работает rutor.org и зеркала? Тогда наш торрент специально для вас. Rutor.in неофициальное зеркало rutor. В случае если у Вас заблокирован rutor или вдруг Вы не можете на него зайти, то Вы без труда сможете скачать бесплатно и без рекламы последние новинки кино, игр, сериалов и прочего у нас, на Rutor.in. Не нужно использовать прокси, чтобы зайти на рутор, достаточно воспользоваться нашим ресурсом. Все новые фильмы, игры, сериалы, книги и музыка за 2013 и 2014 годы через торрент бесплатно. Скачивайте фильмы в хорошем качестве, игры для пк, xbox, playstation без регистрации. У нас вы найдете новые Зарубежные сериалы и Русские сериалы 2013, 2014, 2015 годов. Оставайтесь с нами, качайте любимые фильмы, игры, сериалы, книги и музыку.