img image001 image001 image001 image001 image001 image001 image001 image001 image001 image001 image001 image001 image001 image001 image001

Planets Sun Sun Sun
Статистика раздачи
Автор: Снежана | Размер: 9.48 ГБ | Добавлен: 24 июл 2013, 02:07
Раздают: 102    Качают: 23
Скачать торрент
Скачать торрент
Описание торрента

СообщениеДобавлено: 24 июл 2013, 02:07 

#77

Название: Курьер
Год выхода: 1986
Страна: СССР
Жанр: драма, мелодрама, комедия
Режиссер: Карен Шахназаров
В ролях: Федор Дунаевский, Анастасия Немоляева, Олег Басилашвили, Инна Чурикова, Светлана Крючкова, Александр Панкратов-Черный, Владимир Меньшов, Алевтина Евдокимова, Евдокия Урусова, Владимир Смирнов

О фильме: Выпускник школы Иван, дожидаясь призыва в армию, работает курьером в редакции. Окружающие его солидные взрослые люди с трудом приспосабливаются к удивительной способности этого парня любое событие превратить в невероятное происшествие — порой уморительно веселое, а, подчас, и непоправимо грустное…

Информация о файле:
Качество: BDRip 1080p
Продолжительность: 01:27:20
Язык (перевод):
оригинальная русская дорожка
Субтитры: нет
Формат: MKV

Видео: 1920x816p , 23.976 fps, 14.0 Mbps
Аудио: DTS 5.1, 48 kHz, 1510 kbps
General
Сomplete name : Courier.1986.BDRip.1080p.x264-boofer.mkv
Format : Matroska
File size : 9.48 GiB
Duration : 1h 28mn
Overall bit rate : 15.3 Mbps
Encoded date : UTC 2011-07-28 18:32:08
Writing application : mkvmerge v4.6.0 ('Still Crazy After All These Years') сборка от Apr 1 2011 21:01:49
Writing library : libebml v1.2.0 + libmatroska v1.1.0
Video
ID : 1
Format : AVC
Format/Info : Advanced Video Codec
Format profile : High@L4.1
Format settings, CABAC : Yes
Format settings, ReFrames : 5 frames
Codec ID : V_MPEG4/ISO/AVC
Duration : 1h 28mn
Bit rate : 14.0 Mbps
Width : 1 920 pixels
Height : 816 pixels
Display aspect ratio : 2.35:1
Frame rate : 23.976 fps
Color space : YUV
Chroma subsampling : 4:2:0
Bit depth : 8 bits
Scan type : Progressive
Bits/(Pixel*Frame) : 0.373
Stream size : 8.35 GiB (88%)
Writing library : x264 core 115 r1936 7a9e08d
Encoding settings : cabac=1 / ref=5 / deblock=1:-3:-2 / analyse=0x3:0x113 / me=umh / subme=10 / psy=1 / psy_rd=1.00:0.00 / mixed_ref=1 / me_range=32 / chroma_me=1 / trellis=2 / 8x8dct=1 / cqm=0 / deadzone=21,11 / fast_pskip=0 / chroma_qp_offset=-2 / threads=12 / sliced_threads=0 / nr=0 / decimate=1 / interlaced=0 / bluray_compat=0 / constrained_intra=0 / bframes=8 / b_pyramid=2 / b_adapt=2 / b_bias=0 / direct=3 / weightb=1 / open_gop=0 / weightp=2 / keyint=250 / keyint_min=24 / scenecut=40 / intra_refresh=0 / rc_lookahead=60 / rc=2pass / mbtree=1 / bitrate=14000 / ratetol=1.0 / qcomp=0.70 / qpmin=0 / qpmax=69 / qpstep=4 / cplxblur=20.0 / qblur=0.5 / vbv_maxrate=50000 / vbv_bufsize=50000 / nal_hrd=none / ip_ratio=1.40 / aq=1:1.00
Audio
ID : 2
Format : DTS
Format/Info : Digital Theater Systems
Codec ID : A_DTS
Duration : 1h 28mn
Bit rate mode : Constant
Bit rate : 1 510 Kbps
Channel(s) : 6 channels
Channel positions : Front: L C R, Side: L R, LFE
Sampling rate : 48.0 KHz
Bit depth : 24 bits
Compression mode : Lossy
Stream size : 957 MiB (10%)




   Похожие торренты   Торрент   Размер 
В этой теме нет новых непрочитанных сообщений. Курьер (1986) BDRip 1080p

27 | 9

4.37 ГБ

В этой теме нет новых непрочитанных сообщений. Курьер (1986) BDRip-AVC от R.G. 25 Кадр

45 | 21

2.18 ГБ

В этой теме нет новых непрочитанных сообщений. Курьер (1986) BDRip от Youtracker

459 | 36

1.45 ГБ

В этой теме нет новых непрочитанных сообщений. Курьер (1986) BDRip от MediaClub | КПК

42 | 4

388.42 МБ

В этой теме нет новых непрочитанных сообщений. Курьер (1986) BDRip от HQ-ViDEO

10 | 5

1.45 ГБ

В этой теме нет новых непрочитанных сообщений. Курьер (1986) BDRip от HQCLUB

44 | 6

1.45 ГБ

В этой теме нет новых непрочитанных сообщений. Курьер (1986) BDRip от Youtracker

20 | 5

744.86 МБ




Вы не можете начинать темы
Вы не можете отвечать на сообщения
Вы не можете редактировать свои сообщения
Вы не можете удалять свои сообщения
Вы не можете добавлять вложения

Перейти:  
Для Мосгорсуда, Роскомнадзора и рекламодателей: mosgorsud-torrent[собачка]yandex.ru
Настройки
ppkBB3cker v.2 © 2008-2014 @ PPK
[ Time : 0.017s | 15 Queries | GZIP : Off ]
CGP [Extreme] output time : 0.00013s | 0 Queries | GZIP : Off

Торрент трекер RUTOR.IN, Не можете зайти на rutor.org? Какой новый адрес рутор? Какое зеркало рутор? Не работает rutor.org и зеркала? Тогда наш торрент специально для вас. Rutor.in неофициальное зеркало rutor. В случае если у Вас заблокирован rutor или вдруг Вы не можете на него зайти, то Вы без труда сможете скачать бесплатно и без рекламы последние новинки кино, игр, сериалов и прочего у нас, на Rutor.in. Не нужно использовать прокси, чтобы зайти на рутор, достаточно воспользоваться нашим ресурсом. Все новые фильмы, игры, сериалы, книги и музыка за 2013 и 2014 годы через торрент бесплатно. Скачивайте фильмы в хорошем качестве, игры для пк, xbox, playstation без регистрации. У нас вы найдете новые Зарубежные сериалы и Русские сериалы 2013, 2014, 2015 годов. Оставайтесь с нами, качайте любимые фильмы, игры, сериалы, книги и музыку.