img image001 image001 image001 image001 image001 image001 image001 image001 image001 image001 image001 image001 image001 image001 image001

Planets Sun Sun Sun
Статистика раздачи
Автор: Снежана | Размер: 4.37 ГБ | Добавлен: 24 июл 2013
Раздают: 35    Качают: 10
Скачать торрент
Скачать торрент
Описание торрента

СообщениеДобавлено: 24 июл 2013 

#77

Название: Курьер
Год выхода: 1986
Страна: СССР
Жанр: драма, мелодрама, комедия
Режиссер: Карен Шахназаров
В ролях: Федор Дунаевский, Анастасия Немоляева, Олег Басилашвили, Инна Чурикова, Светлана Крючкова, Александр Панкратов-Черный, Владимир Меньшов, Алевтина Евдокимова, Евдокия Урусова, Владимир Смирнов

О фильме: Выпускник школы Иван, дожидаясь призыва в армию, работает курьером в редакции. Окружающие его солидные взрослые люди с трудом приспосабливаются к удивительной способности этого парня любое событие превратить в невероятное происшествие — порой уморительно веселое, а, подчас, и непоправимо грустное…

Информация о файле:
Качество: BDRip 720p
Продолжительность: 01:27:20
Язык (перевод):
оригинальная русская дорожка
Субтитры: нет
Формат: MKV

Видео: 1280x544 (2.35); 5623 Kbps; 23.976 fps
Аудио: DTS; 1509 Kbps; CBR; 6 ch; 24 bit
General
Unique ID : 197747958608026789097405169213640922352 (0x94C4DF1A21525C7CAF83010D3701D4F0)
Complete name : Kuryer.1986.720.BluRay.Rus-Skazhutin.mkv
Format : Matroska
Format version : Version 2
File size : 4.37 GiB
Duration : 1h 28mn
Overall bit rate : 7 053 Kbps
Movie name : Курьер (1986) BDRip by Skazhutin
Encoded date : UTC 2011-07-27 12:17:59
Writing application : mkvmerge v4.9.1 ('Ich will') built on Jul 11 2011 23:53:15
Writing library : libebml v1.2.1 + libmatroska v1.1.1
Attachment : Yes / Yes
Video
ID : 1
Format : AVC
Format/Info : Advanced Video Codec
Format profile : High@L4.1
Format settings, CABAC : Yes
Format settings, ReFrames : 11 frames
Codec ID : V_MPEG4/ISO/AVC
Duration : 1h 28mn
Bit rate : 5 626 Kbps
Width : 1 280 pixels
Height : 544 pixels
Display aspect ratio : 2.35:1
Frame rate : 23.976 fps
Color space : YUV
Chroma subsampling : 4:2:0
Bit depth : 8 bits
Scan type : Progressive
Bits/(Pixel*Frame) : 0.337
Stream size : 3.34 GiB (77%)
Writing library : x264 core 116 r2037 f8ebd4a
Encoding settings : cabac=1 / ref=11 / deblock=1:-3:-3 / analyse=0x3:0x113 / me=umh / subme=11 / psy=1 / psy_rd=1.00:0.00 / mixed_ref=1 / me_range=24 / chroma_me=1 / trellis=2 / 8x8dct=1 / cqm=0 / deadzone=21,11 / fast_pskip=0 / chroma_qp_offset=-2 / threads=6 / sliced_threads=0 / nr=0 / decimate=0 / interlaced=0 / bluray_compat=0 / constrained_intra=0 / bframes=6 / b_pyramid=2 / b_adapt=2 / b_bias=0 / direct=3 / weightb=1 / open_gop=0 / weightp=2 / keyint=250 / keyint_min=23 / scenecut=40 / intra_refresh=0 / rc_lookahead=60 / rc=2pass / mbtree=0 / bitrate=5626 / ratetol=1.0 / qcomp=0.65 / qpmin=0 / qpmax=69 / qpstep=4 / cplxblur=20.0 / qblur=0.5 / vbv_maxrate=50000 / vbv_bufsize=62500 / nal_hrd=none / ip_ratio=1.40 / pb_ratio=1.30 / aq=1:1.00
Language : Russian
Color primaries : BT.709-5, BT.1361, IEC 61966-2-4, SMPTE RP177
Transfer characteristics : BT.709-5, BT.1361
Matrix coefficients : BT.709-5, BT.1361, IEC 61966-2-4 709, SMPTE RP177
Audio
ID : 2
Format : DTS
Format/Info : Digital Theater Systems
Codec ID : A_DTS
Duration : 1h 28mn
Bit rate mode : Constant
Bit rate : 1 510 Kbps
Channel(s) : 6 channels
Channel positions : Front: L C R, Side: L R, LFE
Sampling rate : 48.0 KHz
Bit depth : 24 bits
Compression mode : Lossy
Stream size : 957 MiB (21%)
Title : DTS 5.1 @ 1509 kbps
Language : Russian
Menu
00:00:00.000 : en:Chapter 1
00:05:20.945 : en:Chapter 2
00:10:48.689 : en:Chapter 3
00:15:41.732 : en:Chapter 4
00:21:13.397 : en:Chapter 5
00:26:12.737 : en:Chapter 6
00:34:03.583 : en:Chapter 7
00:37:30.873 : en:Chapter 8
00:50:22.269 : en:Chapter 9
00:58:09.486 : en:Chapter 10
01:08:25.226 : en:Chapter 11
01:20:18.188 : en:Chapter 12




   Похожие торренты   Торрент   Размер 
В этой теме нет новых непрочитанных сообщений. Курьер (1986) BDRip от HELLYWOOD

34 | 2

1.45 ГБ

В этой теме нет новых непрочитанных сообщений. Курьер (1986) BDRip от Youtracker

459 | 36

1.45 ГБ

В этой теме нет новых непрочитанных сообщений. Курьер (1986) BDRip от Youtracker

20 | 5

744.86 МБ

В этой теме нет новых непрочитанных сообщений. Курьер (1986) BDRip от MediaClub | КПК

42 | 4

388.42 МБ

В этой теме нет новых непрочитанных сообщений. Курьер (1986) BDRip 1080p

102 | 23

9.48 ГБ

В этой теме нет новых непрочитанных сообщений. Курьер (1986) BDRip 1080p

27 | 9

4.37 ГБ

В этой теме нет новых непрочитанных сообщений. Курьер (1986) BDRip от HQCLUB

44 | 6

1.45 ГБ




Вы не можете начинать темы
Вы не можете отвечать на сообщения
Вы не можете редактировать свои сообщения
Вы не можете удалять свои сообщения
Вы не можете добавлять вложения

Перейти:  
Для Мосгорсуда, Роскомнадзора и рекламодателей: mosgorsud-torrent[собачка]yandex.ru
 Вход
ppkBB3cker v.2 © 2008-2014 @ PPK
[ Time : 0.039s | 15 Queries | GZIP : Off ]

Торрент трекер RUTOR.IN, Не можете зайти на rutor.org? Какой новый адрес рутор? Какое зеркало рутор? Не работает rutor.org и зеркала? Тогда наш торрент специально для вас. Rutor.in неофициальное зеркало rutor. В случае если у Вас заблокирован rutor или вдруг Вы не можете на него зайти, то Вы без труда сможете скачать бесплатно и без рекламы последние новинки кино, игр, сериалов и прочего у нас, на Rutor.in. Не нужно использовать прокси, чтобы зайти на рутор, достаточно воспользоваться нашим ресурсом. Все новые фильмы, игры, сериалы, книги и музыка за 2013 и 2014 годы через торрент бесплатно. Скачивайте фильмы в хорошем качестве, игры для пк, xbox, playstation без регистрации. У нас вы найдете новые Зарубежные сериалы и Русские сериалы 2013, 2014, 2015 годов. Оставайтесь с нами, качайте любимые фильмы, игры, сериалы, книги и музыку.
cron