img image001 image001 image001 image001 image001 image001 image001 image001 image001 image001 image001 image001 image001 image001 image001

Planets Sun Sun Sun
Статистика раздачи
Автор: Снежана | Размер: 3.97 ГБ | Добавлен: 24 июл 2013
Раздают: 669    Качают: 65
Скачать торрент
Скачать торрент
Описание торрента

СообщениеДобавлено: 24 июл 2013 

#77

Информация о фильме
Название: Москва слезам не верит
Оригинальное название: Оригинальное название (для иностранных фильмов)
Год выхода: 1979
Жанр: драма, мелодрама, комедия
Режиссер: Владимир Меньшов
В ролях: Вера Алентова, Ирина Муравьёва, Алексей Баталов, Раиса Рязанова, Александр Фатюшин, Борис Сморчков, Виктор Уральский, Валентина Ушакова, Юрий Васильев, Евгения Ханаева

О фильме:
Москва пятидесятых годов. Три молодые провинциалки приезжают в Москву в поисках того, что ищут люди во всех столицах мира - любви, счастья и достатка. Их судьбы складываются именно так, как предполагает характер каждой из девушек. Антонина выходит замуж, растит детей, любит мужа. Людмиле Москва представляется лотереей, в которой она должна выиграть свое особенное счастье. Катерина же - отчаянно влюбляется, но избранник ее оставляет. Однако она не опускает руки, в одиночку растит дочь и к тому же успевает сделать блестящую карьеру. В сорок лет судьба дарит ей встречу с прекрасным человеком и настоящую любовь...


Страна: СССР
Студия: Мосфильм
Продолжительность: 02:28:17
Исходный диск

Файл
Кодек: x264
Качество: BDRip 720p
Видео: AVC, 944x720@949x720, 23.976, ~3000kbps
Звук:
AC3, 5.1, 448kbps
AC3, 1.0, 192kbps
Субтитры: нет

Семпл



General
Unique ID : 184608208720064036795294550572150830274 (0x8AE23F6A4633C14C03FA04342F7C34C2)
Complete name : Moscow.Not.Believe.In.Tears.BDRip.720p.[Lamazz].mkv
Format : Matroska
Format version : Version 2
File size : 3.97 GiB
Duration : 2h 28mn
Overall bit rate : 3 831 Kbps
Encoded date : UTC 2011-11-23 07:18:47
Writing application : mkvmerge v5.0.1 ('Es ist Sommer') built on Oct 13 2011 23:32:28
Writing library : libebml v1.2.2 + libmatroska v1.3.0

Video
ID : 1
Format : AVC
Format/Info : Advanced Video Codec
Format profile : High@L4.1
Format settings, CABAC : Yes
Format settings, ReFrames : 11 frames
Codec ID : V_MPEG4/ISO/AVC
Duration : 2h 28mn
Bit rate : 2 923 Kbps
Width : 944 pixels
Height : 720 pixels
Display aspect ratio : 4:3
Original display aspect ratio : 4:3
Frame rate : 23.976 fps
Color space : YUV
Chroma subsampling : 4:2:0
Bit depth : 8 bits
Scan type : Progressive
Bits/(Pixel*Frame) : 0.179
Stream size : 3.03 GiB (76%)
Writing library : x264 core 112
Encoding settings : cabac=1 / ref=12 / deblock=1:-3:-3 / analyse=0x3:0x113 / me=umh / subme=10 / psy=1 / psy_rd=1.00:0.15 / mixed_ref=1 / me_range=32 / chroma_me=1 / trellis=2 / 8x8dct=1 / cqm=0 / deadzone=21,11 / fast_pskip=1 / chroma_qp_offset=-3 / threads=6 / sliced_threads=0 / nr=0 / decimate=1 / interlaced=0 / constrained_intra=0 / bframes=16 / b_pyramid=1 / b_adapt=2 / b_bias=0 / direct=1 / weightb=1 / open_gop=0 / weightp=2 / keyint=240 / keyint_min=23 / scenecut=40 / intra_refresh=0 / rc_lookahead=40 / rc=crf / mbtree=1 / crf=19.0 / qcomp=0.60 / qpmin=3 / qpmax=51 / qpstep=4 / ip_ratio=1.40 / aq=1:1.00
Language : English
Color primaries : BT.709-5, BT.1361, IEC 61966-2-4, SMPTE RP177
Transfer characteristics : BT.709-5, BT.1361
Matrix coefficients : BT.709-5, BT.1361, IEC 61966-2-4 709, SMPTE RP177

Audio #1
ID : 2
Format : AC-3
Format/Info : Audio Coding 3
Mode extension : CM (complete main)
Codec ID : A_AC3
Duration : 2h 28mn
Bit rate mode : Constant
Bit rate : 640 Kbps
Channel(s) : 6 channels
Channel positions : Front: L C R, Side: L R, LFE
Sampling rate : 48.0 KHz
Bit depth : 16 bits
Compression mode : Lossy
Stream size : 679 MiB (17%)
Title : AC3 5.1
Language : Russian

Audio #2
ID : 3
Format : AC-3
Format/Info : Audio Coding 3
Mode extension : CM (complete main)
Codec ID : A_AC3
Duration : 2h 28mn
Bit rate mode : Constant
Bit rate : 192 Kbps
Channel(s) : 1 channel
Channel positions : Front: C
Sampling rate : 48.0 KHz
Bit depth : 16 bits
Compression mode : Lossy
Stream size : 204 MiB (5%)
Title : AC3 1.0
Language : Russian

Menu
00:00:00.000 : en:00:00:00.000
00:04:00.407 : en:00:04:00.407
00:08:27.257 : en:00:08:27.257
00:09:44.918 : en:00:09:44.918
00:12:57.068 : en:00:12:57.068
00:15:17.917 : en:00:15:17.917
00:22:54.373 : en:00:22:54.373
00:26:51.944 : en:00:26:51.944
00:29:58.338 : en:00:29:58.338
00:35:52.400 : en:00:35:52.400
00:42:41.476 : en:00:42:41.476
00:46:03.344 : en:00:46:03.344
00:48:36.080 : en:00:48:36.080
00:55:13.352 : en:00:55:13.352
01:01:13.003 : en:01:01:13.003
01:04:29.532 : en:01:04:29.532
01:06:50.632 : en:01:06:50.632
01:13:54.347 : en:01:13:54.347
01:14:38.349 : en:01:14:38.349
01:17:12.586 : en:01:17:12.586
01:21:11.075 : en:01:21:11.075
01:28:33.975 : en:01:28:33.975
01:35:22.926 : en:01:35:22.926
01:40:35.738 : en:01:40:35.738
01:46:30.884 : en:01:46:30.884
01:54:40.999 : en:01:54:40.999
01:57:20.617 : en:01:57:20.617
02:00:59.752 : en:02:00:59.752
02:04:17.408 : en:02:04:17.408
02:10:55.806 : en:02:10:55.806
02:18:33.597 : en:02:18:33.597
02:22:05.892 : en:02:22:05.892]


Релиз от: Lamazz



   Похожие торренты   Торрент   Размер 
В этой теме нет новых непрочитанных сообщений. Москва слезам не верит (1979) BDRip от HQ-ViDEO

2279 | 115

2.91 ГБ

В этой теме нет новых непрочитанных сообщений. Москва слезам не верит (1979) BDRip от GeneralFilm

37 | 4

2.44 ГБ

В этой теме нет новых непрочитанных сообщений. Москва слезам не верит (1979) BDRip-AVC от Youtracker

132 | 14

2.91 ГБ

В этой теме нет новых непрочитанных сообщений. Москва слезам не верит (1979) BDRip от HELLYWOOD

95 | 21

2.9 ГБ

В этой теме нет новых непрочитанных сообщений. Москва слезам не верит (1979) BDRip-AVC от Youtracker

225 | 15

2.18 ГБ

В этой теме нет новых непрочитанных сообщений. Москва слезам не верит (1979) BDRip от HQCLUB

1814 | 63

2.18 ГБ

В этой теме нет новых непрочитанных сообщений. Москва слезам не верит (1979) BDRip от MediaClub

614 | 44

2.9 ГБ




Вы не можете начинать темы
Вы не можете отвечать на сообщения
Вы не можете редактировать свои сообщения
Вы не можете удалять свои сообщения
Вы не можете добавлять вложения

Перейти:  
Для Мосгорсуда, Роскомнадзора и рекламодателей: mosgorsud-torrent[собачка]yandex.ru
 Вход
ppkBB3cker v.2 © 2008-2014 @ PPK
[ Time : 1.733s | 14 Queries | GZIP : Off ]

Торрент трекер RUTOR.IN, Не можете зайти на rutor.org? Какой новый адрес рутор? Какое зеркало рутор? Не работает rutor.org и зеркала? Тогда наш торрент специально для вас. Rutor.in неофициальное зеркало rutor. В случае если у Вас заблокирован rutor или вдруг Вы не можете на него зайти, то Вы без труда сможете скачать бесплатно и без рекламы последние новинки кино, игр, сериалов и прочего у нас, на Rutor.in. Не нужно использовать прокси, чтобы зайти на рутор, достаточно воспользоваться нашим ресурсом. Все новые фильмы, игры, сериалы, книги и музыка за 2013 и 2014 годы через торрент бесплатно. Скачивайте фильмы в хорошем качестве, игры для пк, xbox, playstation без регистрации. У нас вы найдете новые Зарубежные сериалы и Русские сериалы 2013, 2014, 2015 годов. Оставайтесь с нами, качайте любимые фильмы, игры, сериалы, книги и музыку.