img image001 image001 image001 image001 image001 image001 image001 image001 image001 image001 image001 image001 image001 image001 image001

Planets Sun Sun Sun
Статистика раздачи
Автор: Снежана | Размер: 4.37 ГБ | Добавлен: 24 июл 2013
Раздают: 8    Качают: 4
Скачать торрент
Скачать торрент
Описание торрента

СообщениеДобавлено: 24 июл 2013 

#77


Информация о фильме
Название: Формула любви
Год выхода: 1984
Жанр: мелодрама, комедия
Режиссер: Марк Захаров
В ролях: Нодар Мгалоблишвили, Александр Абдулов, Семен Фарада, Елена Валюшкина, Александр Михайлов, Александра Захарова, Елена Аминова, Татьяна Пельтцер, Леонид Броневой, Николай Скоробогатов

О фильме:
Музыкальная комедия по мотивам повести Алексея Толстого «Граф Калиостро». В 1780 году Джузеппе Калиостро прибыл в Россию для представления высшей знати. Умыкнув под предлогом лечения отца юную Марью Ивановну, граф пытается влюбить в себя девицу, но безуспешно. В провинциальном поместье, где волею случая оказались путешественники, живет юноша, влюбленный в мраморную статую. С помощью Калиостро он надеется оживить мрамор, но встреча с живой Машей все меняет…


Страна: СССР
Студия: Мосфильм
Продолжительность: 01:30:11
Перевод: Не требуется

Файл
Кодек: H.264
Качество: BDRip 720p
Видео: 6492 Кбит/сек, 980*720 (4:3), в 23,976 кадр/сек, AVC (High@L4.0)
Звук: Russian, 448 Кбит/сек, 48,0 КГц, 16 бит, 6 канала(ов), AC-3

Общее
Уникальный идентификатор : 202519081441582749442678835219606356170 (0x985BC19E918CEAEBB975BB50687140CA)
Полное имя : D:BDRipFormula lyubvi (1984) BDRip 720p.mkv
Формат : Matroska
Версия формата : Version 2
Размер файла : 4,37 Гбайт
Продолжительность : 1 ч. 30 м.
Общий поток : 6939 Кбит/сек
Дата кодирования : UTC 2011-11-27 20:33:31
Программа кодирования : mkvmerge v5.0.1 ('Es ist Sommer') built on Oct 9 2011 11:55:43
Библиотека кодирования : libebml v1.2.2 + libmatroska v1.3.0

Видео
Идентификатор : 1
Формат : AVC
Формат/Информация : Advanced Video Codec
Профиль формата : High@L4.0
Параметр CABAC формата : Да
Параметр ReFrames формата : 9 кадров
Идентификатор кодека : V_MPEG4/ISO/AVC
Продолжительность : 1 ч. 30 м.
Битрейт : 6492 Кбит/сек
Ширина : 980 пикселей
Высота : 720 пикселей
Соотношение сторон : 4:3
Частота кадров : 23,976 кадра/сек
Цветовое пространство : YUV
Субдискретизация насыщенности : 4:2:0
Битовая глубина : 8 бит
Тип развёртки : Прогрессивная
Бит/(Пиксели*Кадры) : 0.384
Размер потока : 4,00 Гбайт (92%)
Библиотека кодирования : x264 core 119 r2106 07efeb4
Настройки программы : cabac=1 / ref=9 / deblock=1:-1:-1 / analyse=0x3:0x113 / me=umh / subme=10 / psy=1 / psy_rd=1.00:0.15 / mixed_ref=1 / me_range=32 / chroma_me=1 / trellis=2 / 8x8dct=1 / cqm=0 / deadzone=21,11 / fast_pskip=0 / chroma_qp_offset=-3 / threads=6 / sliced_threads=0 / nr=0 / decimate=1 / interlaced=0 / bluray_compat=0 / constrained_intra=0 / bframes=7 / b_pyramid=2 / b_adapt=2 / b_bias=0 / direct=3 / weightb=1 / open_gop=0 / weightp=2 / keyint=250 / keyint_min=23 / scenecut=40 / intra_refresh=0 / rc_lookahead=60 / rc=2pass / mbtree=1 / bitrate=6492 / ratetol=1.0 / qcomp=0.80 / qpmin=10 / qpmax=55 / qpstep=4 / cplxblur=20.0 / qblur=0.5 / ip_ratio=1.40 / aq=1:1.00
Язык : English

Аудио
Идентификатор : 2
Формат : AC-3
Формат/Информация : Audio Coding 3
Расширение режима : CM (complete main)
Идентификатор кодека : A_AC3
Продолжительность : 1 ч. 30 м.
Вид битрейта : Постоянный
Битрейт : 448 Кбит/сек
Каналы : 6 каналов
Расположение каналов : Front: L C R, Side: L R, LFE
Частота : 48,0 КГц
Битовая глубина : 16 бит
Метод сжатия : С потерями
Размер потока : 289 Мбайт (6%)
Язык : Russian

Меню
00:00:00.000 : en:Chapter 01
00:10:05.479 : en:Chapter 02
00:16:10.928 : en:Chapter 03
00:24:00.105 : en:Chapter 04
00:29:34.689 : en:Chapter 05
00:37:08.893 : en:Chapter 06
00:45:41.572 : en:Chapter 07
00:51:38.637 : en:Chapter 08
01:01:43.700 : en:Chapter 09
01:07:29.962 : en:Chapter 10
01:13:55.430 : en:Chapter 11
01:21:28.675 : en:Chapter 12
01:30:11.406 : en:Chapter 13




Релиз от:



   Похожие торренты   Торрент   Размер 
В этой теме нет новых непрочитанных сообщений. Формула любви (1984) BDRip-AVC

64 | 12

2.17 ГБ

В этой теме нет новых непрочитанных сообщений. Формула любви (1984) BDRip от MediaClub | КПК

38 | 14

405.83 МБ

В этой теме нет новых непрочитанных сообщений. Формула любви (1984) BDRip от HQCLUB

168 | 16

1.7 ГБ

В этой теме нет новых непрочитанных сообщений. Формула любви (1984) BDRip 1080 от HDReactor

34 | 9

7.95 ГБ

В этой теме нет новых непрочитанных сообщений. Формула любви (1984) BDRip 1080p Rip by Neofilm

28 | 7

4.36 ГБ

В этой теме нет новых непрочитанных сообщений. Формула любви (1984) Blu-Ray

7 | 4

16.92 ГБ

В этой теме нет новых непрочитанных сообщений. Формула любви (1984) DVDRip

626 | 34

1.46 ГБ




Вы не можете начинать темы
Вы не можете отвечать на сообщения
Вы не можете редактировать свои сообщения
Вы не можете удалять свои сообщения
Вы не можете добавлять вложения

Перейти:  
Для Мосгорсуда, Роскомнадзора и рекламодателей: mosgorsud-torrent[собачка]yandex.ru
 Вход
ppkBB3cker v.2 © 2008-2014 @ PPK
[ Time : 0.055s | 14 Queries | GZIP : Off ]

Торрент трекер RUTOR.IN, Не можете зайти на rutor.org? Какой новый адрес рутор? Какое зеркало рутор? Не работает rutor.org и зеркала? Тогда наш торрент специально для вас. Rutor.in неофициальное зеркало rutor. В случае если у Вас заблокирован rutor или вдруг Вы не можете на него зайти, то Вы без труда сможете скачать бесплатно и без рекламы последние новинки кино, игр, сериалов и прочего у нас, на Rutor.in. Не нужно использовать прокси, чтобы зайти на рутор, достаточно воспользоваться нашим ресурсом. Все новые фильмы, игры, сериалы, книги и музыка за 2013 и 2014 годы через торрент бесплатно. Скачивайте фильмы в хорошем качестве, игры для пк, xbox, playstation без регистрации. У нас вы найдете новые Зарубежные сериалы и Русские сериалы 2013, 2014, 2015 годов. Оставайтесь с нами, качайте любимые фильмы, игры, сериалы, книги и музыку.