img image001 image001 image001 image001 image001 image001 image001 image001 image001 image001 image001 image001 image001 image001 image001

Planets Sun Sun Sun
Статистика раздачи
Автор: Снежана | Размер: 4.37 ГБ | Добавлен: 24 июл 2013
Раздают: 7    Качают: 3
Скачать торрент
Скачать торрент
Описание торрента

СообщениеДобавлено: 24 июл 2013 

#77


Информация о фильме
Название: Зеркало
Год выхода: 1974
Жанр: драма, биография, история
Режиссер: Андрей Тарковский
В ролях: Маргарита Терехова, Олег Янковский, Филипп Янковский, Игнат Данильцев, Николай Гринько, Алла Демидова, Юрий Назаров, Анатолий Солоницын, Лариса Тарковская, Тамара Огородникова

О фильме:
Герой картины мучительно боится потерять любовь и понимание близких людей: матери, любимой женщины, сына. И чувствует, что жизнь с каждым днем все дальше уводит их друг от друга. Пытаясь сохранить семью, он обращается памятью к самым сильным впечатлениям своего детства, стараясь в том, детском, мировосприятии найти опору и оправдание своим сегодняшним переживаниям.


Страна: СССР
Студия: Мосфильм
Продолжительность: 01:47:20
Перевод: не требуется

Файл
Кодек: H.264
Качество: BDRip 720p
Видео: English, 5398 Кбит/сек, 1040*720 (1,444), в 23,976 кадр/сек, AVC (High@L4.1)
Звук: Russian , 448 Кбит/сек, 48,0 КГц, 16 бит, 6 канала(ов), AC-3
Субтитры: Russian,English (srt)

Общее
Уникальный идентификатор : 207399817513234792354323694462247201372 (0x9C07C07C941FB66593B2555A87496A5C)
Полное имя : E:торрентZerkalo.1974.BDRip 720p.mkv
Формат : Matroska
Версия формата : Version 2
Размер файла : 4,37 Гбайт
Продолжительность : 1 ч. 47 м.
Общий поток : 5833 Кбит/сек
Дата кодирования : UTC 2011-11-30 03:15:11
Программа кодирования : mkvmerge v5.0.1 ('Es ist Sommer') built on Oct 9 2011 11:55:43
Библиотека кодирования : libebml v1.2.2 + libmatroska v1.3.0

Видео
Идентификатор : 1
Формат : AVC
Формат/Информация : Advanced Video Codec
Профиль формата : High@L4.1
Параметр CABAC формата : Да
Параметр ReFrames формата : 10 кадров
Идентификатор кодека : V_MPEG4/ISO/AVC
Продолжительность : 1 ч. 47 м.
Битрейт : 5398 Кбит/сек
Ширина : 1040 пикселей
Высота : 720 пикселей
Соотношение сторон : 1,444
Частота кадров : 23,976 кадра/сек
Цветовое пространство : YUV
Субдискретизация насыщенности : 4:2:0
Битовая глубина : 8 бит
Тип развёртки : Прогрессивная
Бит/(Пиксели*Кадры) : 0.301
Размер потока : 3,95 Гбайт (90%)
Библиотека кодирования : x264 core 119 r2106 07efeb4
Настройки программы : cabac=1 / ref=10 / deblock=1:-1:-1 / analyse=0x3:0x113 / me=esa / subme=10 / psy=1 / psy_rd=1.00:0.15 / mixed_ref=1 / me_range=48 / chroma_me=1 / trellis=2 / 8x8dct=1 / cqm=0 / deadzone=21,11 / fast_pskip=0 / chroma_qp_offset=-3 / threads=6 / sliced_threads=0 / nr=0 / decimate=0 / interlaced=0 / bluray_compat=0 / constrained_intra=0 / bframes=7 / b_pyramid=2 / b_adapt=2 / b_bias=0 / direct=1 / weightb=1 / open_gop=0 / weightp=2 / keyint=250 / keyint_min=23 / scenecut=40 / intra_refresh=0 / rc_lookahead=50 / rc=2pass / mbtree=1 / bitrate=5398 / ratetol=1.0 / qcomp=0.70 / qpmin=0 / qpmax=69 / qpstep=4 / cplxblur=20.0 / qblur=0.5 / ip_ratio=1.40 / aq=1:0.90
Язык : English

Аудио
Идентификатор : 2
Формат : AC-3
Формат/Информация : Audio Coding 3
Расширение режима : CM (complete main)
Идентификатор кодека : A_AC3
Продолжительность : 1 ч. 47 м.
Вид битрейта : Постоянный
Битрейт : 448 Кбит/сек
Каналы : 6 каналов
Расположение каналов : Front: L C R, Side: L R, LFE
Частота : 48,0 КГц
Битовая глубина : 16 бит
Метод сжатия : С потерями
Размер потока : 344 Мбайт (8%)

Текст #1
Идентификатор : 3
Формат : UTF-8
Идентификатор кодека : S_TEXT/UTF8
Идентификатор кодека/Информация : UTF-8 Plain Text
Язык : Russian

Текст #2
Идентификатор : 4
Формат : UTF-8
Идентификатор кодека : S_TEXT/UTF8
Идентификатор кодека/Информация : UTF-8 Plain Text
Язык : English

Меню
00:00:00.000 : en:Chapter 01
00:05:58.357 : en:Chapter 02
00:14:09.848 : en:Chapter 03
00:22:30.349 : en:Chapter 04
00:29:17.756 : en:Chapter 05
00:34:47.085 : en:Chapter 06
00:41:35.493 : en:Chapter 07
00:52:09.126 : en:Chapter 08
00:59:38.575 : en:Chapter 09
01:06:23.979 : en:Chapter 10
01:16:17.573 : en:Chapter 11
01:20:41.837 : en:Chapter 12
01:32:48.563 : en:Chapter 13
01:41:03.057 : en:Chapter 14





Релиз от:



   Похожие торренты   Торрент   Размер 
В этой теме нет новых непрочитанных сообщений. Зеркало (1974) BDRip 720p | O

18 | 16

3.97 ГБ

В этой теме нет новых непрочитанных сообщений. Зеркало (1974) BDRip от HQCLUB

1021 | 11

2 ГБ

В этой теме нет новых непрочитанных сообщений. Зеркало (1974) BDRip от MediaClub | КПК

39 | 6

483.69 МБ

В этой теме нет новых непрочитанных сообщений. Зеркало (1974) BDRip-AVC | iPad | O

21 | 3

1.68 ГБ

В этой теме нет новых непрочитанных сообщений. Зеркало (1974) BDRip 1080p

234 | 97

7.7 ГБ

В этой теме нет новых непрочитанных сообщений. Зеркало (1974) BDRip от KinoZalSat - СССР

294 | 22

1.37 ГБ

В этой теме нет новых непрочитанных сообщений. Зеркало (1974) BDRip 1080 от HDReactor

7 | 12

10.35 ГБ




Вы не можете начинать темы
Вы не можете отвечать на сообщения
Вы не можете редактировать свои сообщения
Вы не можете удалять свои сообщения
Вы не можете добавлять вложения

Перейти:  
Для Мосгорсуда, Роскомнадзора и рекламодателей: mosgorsud-torrent[собачка]yandex.ru
 Вход
ppkBB3cker v.2 © 2008-2014 @ PPK
[ Time : 0.046s | 17 Queries | GZIP : Off ]

cron