img image001 image001 image001 image001 image001 image001 image001 image001 image001 image001 image001 image001 image001 image001 image001

Planets Sun Sun Sun
Статистика раздачи
Автор: Снежана | Размер: 8.5 ГБ | Добавлен: 24 июл 2013
Раздают: 12    Качают: 7
Скачать торрент
Скачать торрент
Описание торрента

СообщениеДобавлено: 24 июл 2013 

#77

Информация о фильме
Название фильма: Бабло
Год выхода: 2011
Жанр: комедия
Режиссер: Константин Буслов
В ролях: Мария Берсенева, Роман Мадянов, Гия Гогишвили, Георгий Гургулия, Михаил Месхи, Яков Кучеревский, Владимир Сычев, Кирилл Сафонов, Сергей Насибов, Сергей Болотаев

О фильме: Москва. Наши дни. В центре города из машины двое воришек крадут сумку с миллионом евро, думая, что им, наконец, повезло, и даже не представляя, во что, на самом деле, они ввязались. За деньгами начинается настоящая охота. Перед искушением не может устоять никто. Сумма в виде двух пачек денег по полмиллиона евро делает абсолютно разных людей одинаковыми в своих поступках и желаниях: А началось все с того, что «миллионщик» Григорий не захотел честно платить налоги.


Выпущено: Россия, Кинокомпания CTB
Продолжительность: 01:31:59
Озвучивание: Оригинальное [лицензия]

Файл
Формат: MKV
Качество: BDRip 1080p
Видео: 11.7 mb/s, 1920x1040
Аудио: DTS, 1510 kb/s (6 ch)
Полное имя : Bablo.BDRip1080p.mkv
Формат : Matroska
Версия формата : Version 2
Размер файла : 8,50 Гбайт
Продолжительность : 1 ч. 31 м.
Общий поток : 13,2 Мбит/сек
Название фильма : Bablo.BDRip1080p.by FSB
Дата кодирования : UTC 2011-11-24 15:19:59
Программа кодирования : mkvmerge v5.0.0 ('Die Wahre Liebe') built on Sep 25 2011 20:33:49
Библиотека кодирования : libebml v1.2.2 + libmatroska v1.3.0

Видео
Идентификатор : 1
Формат : AVC
Формат/Информация : Advanced Video Codec
Профиль формата : High@L4.1
Параметр CABAC формата : Да
Параметр ReFrames формата : 4 кадра
Идентификатор кодека : V_MPEG4/ISO/AVC
Продолжительность : 1 ч. 31 м.
Битрейт : 11,7 Мбит/сек
Ширина : 1920 пикс.
Высота : 1040 пикс.
Соотношение сторон : 16:9
Частота кадров : 23,976 кадр/сек
Цветовое пространство : YUV
Подвыборка цветности : 4:2:0
Битовая глубина : 8 бит
Тип развёртки : Прогрессивная
Бит/(Пиксели*Кадры) : 0.245
Размер потока : 7,37 Гбайт (87%)
Заголовок : Bablo.BDRip1080p.FSB
Библиотека кодирования : x264 core 119 r2106 07efeb4
Настройки программы : cabac=1 / ref=4 / deblock=1:-3:-3 / analyse=0x3:0x113 / me=umh / subme=9 / psy=1 / psy_rd=1.05:0.15 / mixed_ref=1 / me_range=32 / chroma_me=1 / trellis=1 / 8x8dct=1 / cqm=0 / deadzone=21,11 / fast_pskip=0 / chroma_qp_offset=-3 / threads=6 / sliced_threads=0 / nr=0 / decimate=1 / interlaced=0 / bluray_compat=0 / constrained_intra=0 / bframes=4 / b_pyramid=2 / b_adapt=2 / b_bias=0 / direct=3 / weightb=1 / open_gop=0 / weightp=2 / keyint=250 / keyint_min=25 / scenecut=40 / intra_refresh=0 / rc_lookahead=50 / rc=2pass / mbtree=1 / bitrate=11729 / ratetol=1.0 / qcomp=0.70 / qpmin=10 / qpmax=69 / qpstep=4 / cplxblur=20.0 / qblur=0.5 / ip_ratio=1.40 / aq=1:1.00
Язык : Russian

Аудио
Идентификатор : 2
Формат : DTS
Формат/Информация : Digital Theater Systems
Идентификатор кодека : A_DTS
Продолжительность : 1 ч. 31 м.
Вид битрейта : Постоянный
Битрейт : 1510 Кбит/сек
Каналы : 6 каналов
Расположение каналов : Front: L C R, Side: L R, LFE
Частота : 48,0 КГц
Битовая глубина : 24 бит
Метод сжатия : С потерями
Размер потока : 993 Мбайт (11%)
Язык : Russian

Меню
00:00:00.000 : en:00:00:00.000
00:05:39.714 : en:00:05:39.714
00:11:42.452 : en:00:11:42.452
00:19:21.118 : en:00:19:21.118
00:25:20.185 : en:00:25:20.185
00:30:28.285 : en:00:30:28.285
00:37:07.934 : en:00:37:07.934
00:43:26.687 : en:00:43:26.687
00:50:37.534 : en:00:50:37.534
00:55:13.644 : en:00:55:13.644
01:02:06.640 : en:01:02:06.640
01:07:19.911 : en:01:07:19.911
01:12:58.332 : en:01:12:58.332
01:18:02.052 : en:01:18:02.052
01:22:23.438 : en:01:22:23.438
01:28:52.035 : en:01:28:52.035


Релиз группы:



   Похожие торренты   Торрент   Размер 
В этой теме нет новых непрочитанных сообщений. Бабло (2011) BDRip 1080p от alexgood5

12 | 3

7.39 ГБ

В этой теме нет новых непрочитанных сообщений. Бабло (2011) BDRip 1080p от Freeisland

42 | 2

4.37 ГБ

В этой теме нет новых непрочитанных сообщений. Бабло (2011) BDRip-AVC | iPad

119 | 10

2.34 ГБ

В этой теме нет новых непрочитанных сообщений. Бабло (2011) BDRip от HELLYWOOD

121 | 8

1.45 ГБ

В этой теме нет новых непрочитанных сообщений. Бабло (2011) BDRip 720p | HDCLUB

6 | 4

5.64 ГБ

В этой теме нет новых непрочитанных сообщений. Бабло (2011) BDRip от HQCLUB | Лицензия

944 | 52

1.46 ГБ

В этой теме нет новых непрочитанных сообщений. Бабло (2011) Blu-ray

0 | 2

19.26 ГБ




Вы не можете начинать темы
Вы не можете отвечать на сообщения
Вы не можете редактировать свои сообщения
Вы не можете удалять свои сообщения
Вы не можете добавлять вложения

Перейти:  
Для Мосгорсуда, Роскомнадзора и рекламодателей: mosgorsud-torrent[собачка]yandex.ru
 Вход
ppkBB3cker v.2 © 2008-2014 @ PPK
[ Time : 0.027s | 14 Queries | GZIP : On ]

Торрент трекер RUTOR.IN, Не можете зайти на rutor.org? Какой новый адрес рутор? Какое зеркало рутор? Не работает rutor.org и зеркала? Тогда наш торрент специально для вас. Rutor.in неофициальное зеркало rutor. В случае если у Вас заблокирован rutor или вдруг Вы не можете на него зайти, то Вы без труда сможете скачать бесплатно и без рекламы последние новинки кино, игр, сериалов и прочего у нас, на Rutor.in. Не нужно использовать прокси, чтобы зайти на рутор, достаточно воспользоваться нашим ресурсом. Все новые фильмы, игры, сериалы, книги и музыка за 2013 и 2014 годы через торрент бесплатно. Скачивайте фильмы в хорошем качестве, игры для пк, xbox, playstation без регистрации. У нас вы найдете новые Зарубежные сериалы и Русские сериалы 2013, 2014, 2015 годов. Оставайтесь с нами, качайте любимые фильмы, игры, сериалы, книги и музыку.