img image001 image001 image001 image001 image001 image001 image001 image001 image001 image001 image001 image001 image001 image001 image001

Planets Sun Sun Sun
Статистика раздачи
Автор: Снежана | Размер: 14.52 ГБ | Добавлен: 24 июл 2013
Раздают: 0    Качают: 2
Скачать торрент
Скачать торрент
Описание торрента

СообщениеДобавлено: 24 июл 2013 

#77

Информация о фильме
Название: Свадьба по обмену
Год выхода: 2011
Жанр: мелодрама, комедия
Режиссер: Дмитрий Грачев
В ролях: Екатерина Вилкова, Фёдор Бондарчук, Максим Матвеев, Арарат Кещян, Мария Кожевникова, Ксения Каталымова, Андрей Малахов

О фильме: Супермодель Соня мечтает о тихом семейном счастье с давним бой-френдом Русланом — самовлюблённым ведущим популярного кулинарного шоу, Но тот не разделяет её мечты, он грезит только о славе и повышении собственного рейтинга, поэтому делает Соне предложение руки и сердца в присутствии толпы репортеров. В отместку, Соня решает выйти замуж за обычного банковского клерка Сашу. Тот соглашается и тоже назло любимой девушке, Кристине. Уже выйдя из загса, Саша и Соня понимают, что погорячились. Но делать нечего, теперь им приходится изображать перед всеми счастливую влюбленную пару, скрывая взаимную ненависть.



Выпущено: Россия, Централ Партнершип
Продолжительность: 01:28:28
Озвучивание: Оригинальное [лицензия]

Файл
Формат: MKV
Качество: BDRemux
Видео: MPEG Video / 22.2 Mbps / 1920х1080p / 25.000 fps / 16:9 /
Аудио: Russian / AC3 / 5.1 / 48 kHz / 640 kbps / 16-bit
General
Complete name : D:svad'ba.po.obmenu.BDRemux 1080p.mkv
Format : Matroska
File size : 14.5 GiB
Duration : 1h 29mn
Overall bit rate : 23.3 Mbps
Encoded date : UTC 2011-12-02 13:48:31
Writing application : mkvmerge v5.0.1 ('Es ist Sommer') built on Nov 6 2011 16:23:40
Writing library : libebml v1.2.2 + libmatroska v1.3.0

Video
ID : 1
Format : MPEG Video
Format version : Version 2
Format profile : Main@High
Format settings, BVOP : No
Format settings, Matrix : Default
Codec ID : V_MPEG2
Codec ID/Info : MPEG 1 or 2 Video
Duration : 1h 29mn
Bit rate mode : Variable
Bit rate : 22.2 Mbps
Nominal bit rate : 25.0 Mbps
Width : 1 920 pixels
Height : 1 080 pixels
Display aspect ratio : 16:9
Frame rate : 50.000 fps
Original frame rate : 25.000 fps
Color space : YUV
Chroma subsampling : 4:2:0
Bit depth : 8 bits
Scan type : Interlaced
Scan order : Top Field First
Bits/(Pixel*Frame) : 0.214
Stream size : 13.8 GiB (95%)

Audio
ID : 2
Format : AC-3
Format/Info : Audio Coding 3
Mode extension : CM (complete main)
Codec ID : A_AC3
Duration : 1h 29mn
Bit rate mode : Constant
Bit rate : 640 Kbps
Channel(s) : 6 channels
Channel positions : Front: L C R, Side: L R, LFE
Sampling rate : 48.0 KHz
Bit depth : 16 bits
Stream size : 408 MiB (3%)

Menu
00:00:00.000 : en:Chapter 1
00:02:10.320 : en:Chapter 2
00:10:31.480 : en:Chapter 3
00:19:06.440 : en:Chapter 4
00:32:29.000 : en:Chapter 5
00:44:22.400 : en:Chapter 6
00:54:26.760 : en:Chapter 7
01:06:12.800 : en:Chapter 8
01:19:26.880 : en:Chapter 9




   Похожие торренты   Торрент   Размер 
В этой теме нет новых непрочитанных сообщений. Свадьба по обмену (2011) Blu-Ray

0 | 19

17.21 ГБ

В этой теме нет новых непрочитанных сообщений. Свадьба по обмену (2011) DVD9

3 | 3

4.84 ГБ

В этой теме нет новых непрочитанных сообщений. Свадьба по обмену (2011) BDRip 1080p

5 | 18

8.07 ГБ

В этой теме нет новых непрочитанных сообщений. Свадьба по обмену (2011) BDRip 720p

8 | 7

4.36 ГБ

В этой теме нет новых непрочитанных сообщений. Свадьба по обмену (2011) DVD5 от Giorgi0412

2 | 3

2.72 ГБ

В этой теме нет новых непрочитанных сообщений. Свадьба по обмену (2011) BDRip от HQ-ViDEO

68 | 8

1.45 ГБ

В этой теме нет новых непрочитанных сообщений. Свадьба по обмену (2011) BDRip от HELLYWOOD

11 | 2

1.45 ГБ




Вы не можете начинать темы
Вы не можете отвечать на сообщения
Вы не можете редактировать свои сообщения
Вы не можете удалять свои сообщения
Вы не можете добавлять вложения

Перейти:  
Для Мосгорсуда, Роскомнадзора и рекламодателей: mosgorsud-torrent[собачка]yandex.ru
 Вход
ppkBB3cker v.2 © 2008-2014 @ PPK
[ Time : 0.041s | 14 Queries | GZIP : Off ]

Торрент трекер RUTOR.IN, Не можете зайти на rutor.org? Какой новый адрес рутор? Какое зеркало рутор? Не работает rutor.org и зеркала? Тогда наш торрент специально для вас. Rutor.in неофициальное зеркало rutor. В случае если у Вас заблокирован rutor или вдруг Вы не можете на него зайти, то Вы без труда сможете скачать бесплатно и без рекламы последние новинки кино, игр, сериалов и прочего у нас, на Rutor.in. Не нужно использовать прокси, чтобы зайти на рутор, достаточно воспользоваться нашим ресурсом. Все новые фильмы, игры, сериалы, книги и музыка за 2013 и 2014 годы через торрент бесплатно. Скачивайте фильмы в хорошем качестве, игры для пк, xbox, playstation без регистрации. У нас вы найдете новые Зарубежные сериалы и Русские сериалы 2013, 2014, 2015 годов. Оставайтесь с нами, качайте любимые фильмы, игры, сериалы, книги и музыку.