img image001 image001 image001 image001 image001 image001 image001 image001 image001 image001 image001 image001 image001 image001 image001

Planets Sun Sun Sun
Статистика раздачи
Автор: Снежана | Размер: 8.07 ГБ | Добавлен: 24 июл 2013
Раздают: 5    Качают: 18
Скачать торрент
Скачать торрент
Описание торрента

СообщениеДобавлено: 24 июл 2013 

#77

Информация о фильме
Название: Свадьба по обмену
Год выхода: 2011
Жанр: мелодрама, комедия
Режиссер: Дмитрий Грачев
В ролях: Екатерина Вилкова, Фёдор Бондарчук, Максим Матвеев, Арарат Кещян, Мария Кожевникова, Ксения Каталымова, Андрей Малахов

О фильме: Супермодель Соня мечтает о тихом семейном счастье с давним бой-френдом Русланом — самовлюблённым ведущим популярного кулинарного шоу, Но тот не разделяет её мечты, он грезит только о славе и повышении собственного рейтинга, поэтому делает Соне предложение руки и сердца в присутствии толпы репортеров. В отместку, Соня решает выйти замуж за обычного банковского клерка Сашу. Тот соглашается и тоже назло любимой девушке, Кристине. Уже выйдя из загса, Саша и Соня понимают, что погорячились. Но делать нечего, теперь им приходится изображать перед всеми счастливую влюбленную пару, скрывая взаимную ненависть.



Выпущено: Россия, Централ Партнершип
Продолжительность: 01:28:28
Озвучивание: Оригинальное [лицензия]

Файл
Формат: MKV
Качество: BDRip 1080p
Видео: MPEG Video / 12.3 Mbps Mbps / 1920 x 1032 / 25.000 fps / 16:9 /
Аудио: Russian / AC3 / 5.1 / 48 kHz / 640 kbps / 16-bit
General
Complete name : D:Svadba.po.obmenu.2011.BDRip.(1080p).mkv
Format : Matroska
File size : 8.07 GiB
Duration : 1h 29mn
Overall bit rate : 13.0 Mbps
Movie name : Svadba_po_obmenu.BDRip.1080p.UNIONGANG.TV
Encoded date : UTC 2011-12-02 17:32:21
Writing application : mkvmerge v5.0.0 ('Die Wahre Liebe') built on Sep 25 2011 20:33:49
Writing library : libebml v1.2.2 + libmatroska v1.3.0

Video
ID : 1
Format : AVC
Format/Info : Advanced Video Codec
Format profile : High@L4.1
Format settings, CABAC : Yes
Format settings, ReFrames : 5 frames
Format settings, GOP : M=1, N=16
Muxing mode : Container profile=Unknown@4.1
Codec ID : V_MPEG4/ISO/AVC
Duration : 1h 29mn
Bit rate : 12.3 Mbps
Width : 1 920 pixels
Height : 1 032 pixels
Display aspect ratio : 1.860
Frame rate : 25.000 fps
Color space : YUV
Chroma subsampling : 4:2:0
Bit depth : 8 bits
Scan type : Progressive
Bits/(Pixel*Frame) : 0.249
Stream size : 7.51 GiB (93%)
Title : Svadba_po_obmenu.BDRip.1080p.UNIONGANG.TV
Writing library : x264 core 119 r2106 07efeb4
Encoding settings : cabac=1 / ref=5 / deblock=1:-3:-3 / analyse=0x3:0x133 / me=umh / subme=10 / psy=1 / psy_rd=1.00:0.20 / mixed_ref=1 / me_range=32 / chroma_me=1 / trellis=2 / 8x8dct=1 / cqm=0 / deadzone=21,11 / fast_pskip=0 / chroma_qp_offset=-3 / threads=6 / sliced_threads=0 / nr=0 / decimate=1 / interlaced=0 / bluray_compat=0 / constrained_intra=0 / bframes=5 / b_pyramid=2 / b_adapt=2 / b_bias=0 / direct=3 / weightb=1 / open_gop=0 / weightp=2 / keyint=250 / keyint_min=25 / scenecut=40 / intra_refresh=0 / rc_lookahead=50 / rc=2pass / mbtree=1 / bitrate=12340 / ratetol=1.0 / qcomp=0.60 / qpmin=10 / qpmax=69 / qpstep=4 / cplxblur=20.0 / qblur=0.5 / ip_ratio=1.40 / aq=1:1.00

Audio
ID : 2
Format : AC-3
Format/Info : Audio Coding 3
Mode extension : CM (complete main)
Codec ID : A_AC3
Duration : 1h 29mn
Bit rate mode : Constant
Bit rate : 640 Kbps
Channel(s) : 6 channels
Channel positions : Front: L C R, Side: L R, LFE
Sampling rate : 48.0 KHz
Bit depth : 16 bits
Stream size : 408 MiB (5%)
Title : ac3.640 kb/s
Language : Russian

Menu
00:00:00.000 : en:00:00:00.000
00:02:10.320 : en:00:02:10.320
00:10:31.480 : en:00:10:31.480
00:19:06.440 : en:00:19:06.440
00:32:29.000 : en:00:32:29.000
00:44:22.400 : en:00:44:22.400
00:54:26.760 : en:00:54:26.760
01:06:12.800 : en:01:06:12.800
01:19:26.880 : en:01:19:26.880




   Похожие торренты   Торрент   Размер 
В этой теме нет новых непрочитанных сообщений. Свадьба по обмену (2011) BDRip от HQ-ViDEO

68 | 8

1.45 ГБ

В этой теме нет новых непрочитанных сообщений. Свадьба по обмену (2011) BDRip-AVC | Лицензия

273 | 29

1.43 ГБ

В этой теме нет новых непрочитанных сообщений. Свадьба по обмену (2011) BDRip от HELLYWOOD

11 | 2

1.45 ГБ

В этой теме нет новых непрочитанных сообщений. Свадьба по обмену (2011) BDRip 720p

8 | 7

4.36 ГБ

В этой теме нет новых непрочитанных сообщений. Свадьба по обмену (2011) BDRip от HQCLUB | Лицензия

59 | 9

1.45 ГБ

В этой теме нет новых непрочитанных сообщений. Свадьба по обмену (2011) Blu-Ray

0 | 19

17.21 ГБ

В этой теме нет новых непрочитанных сообщений. Свадьба по обмену (2011) BDRemux

0 | 2

14.52 ГБ




Вы не можете начинать темы
Вы не можете отвечать на сообщения
Вы не можете редактировать свои сообщения
Вы не можете удалять свои сообщения
Вы не можете добавлять вложения

Перейти:  
Для Мосгорсуда, Роскомнадзора и рекламодателей: mosgorsud-torrent[собачка]yandex.ru
 Вход
ppkBB3cker v.2 © 2008-2014 @ PPK
[ Time : 0.033s | 14 Queries | GZIP : On ]

Торрент трекер RUTOR.IN, Не можете зайти на rutor.org? Какой новый адрес рутор? Какое зеркало рутор? Не работает rutor.org и зеркала? Тогда наш торрент специально для вас. Rutor.in неофициальное зеркало rutor. В случае если у Вас заблокирован rutor или вдруг Вы не можете на него зайти, то Вы без труда сможете скачать бесплатно и без рекламы последние новинки кино, игр, сериалов и прочего у нас, на Rutor.in. Не нужно использовать прокси, чтобы зайти на рутор, достаточно воспользоваться нашим ресурсом. Все новые фильмы, игры, сериалы, книги и музыка за 2013 и 2014 годы через торрент бесплатно. Скачивайте фильмы в хорошем качестве, игры для пк, xbox, playstation без регистрации. У нас вы найдете новые Зарубежные сериалы и Русские сериалы 2013, 2014, 2015 годов. Оставайтесь с нами, качайте любимые фильмы, игры, сериалы, книги и музыку.