img image001 image001 image001 image001 image001 image001 image001 image001 image001 image001 image001 image001 image001 image001 image001

Planets Sun Sun Sun
Статистика раздачи
Автор: Снежана | Размер: 4.36 ГБ | Добавлен: 24 июл 2013
Раздают: 8    Качают: 7
Скачать торрент
Скачать торрент
Описание торрента

СообщениеДобавлено: 24 июл 2013 

#77

Информация о фильме
Название: Свадьба по обмену
Год выхода: 2011
Жанр: мелодрама, комедия
Режиссер: Дмитрий Грачев
В ролях: Екатерина Вилкова, Фёдор Бондарчук, Максим Матвеев, Арарат Кещян, Мария Кожевникова, Ксения Каталымова, Андрей Малахов

О фильме: Супермодель Соня мечтает о тихом семейном счастье с давним бой-френдом Русланом — самовлюблённым ведущим популярного кулинарного шоу, Но тот не разделяет её мечты, он грезит только о славе и повышении собственного рейтинга, поэтому делает Соне предложение руки и сердца в присутствии толпы репортеров. В отместку, Соня решает выйти замуж за обычного банковского клерка Сашу. Тот соглашается и тоже назло любимой девушке, Кристине. Уже выйдя из загса, Саша и Соня понимают, что погорячились. Но делать нечего, теперь им приходится изображать перед всеми счастливую влюбленную пару, скрывая взаимную ненависть.



Выпущено: Россия, Централ Партнершип
Продолжительность: 01:28:28
Озвучивание: Оригинальное [лицензия]

Файл
Формат: MKV
Качество: BDRip 720p
Видео: MPEG-4 AVC, 6415 Кбит/сек, 1280x688, 25.000 кадр/с
Аудио: AC3, 6 ch, 640 Кбит/с
Общее

Полное имя : Svadba.po.obmenu.2011.x264.BDRip.(720р).UNIONGANG.mkv
Формат : Matroska
Версия формата : Version 2
Размер файла : 4,36 Гбайт
Продолжительность : 1 ч. 29 м.
Общий поток : 7014 Кбит/сек
Название фильма : Svadba.po.obmenu.2011.x264.BDRip.(720р).UNIONGANG.mkv
Дата кодирования : UTC 2011-12-03 14:14:54
Программа кодирования : mkvmerge v5.0.0 ('Die Wahre Liebe') built on Sep 25 2011 20:33:49
Библиотека кодирования : libebml v1.2.2 + libmatroska v1.3.0

Видео
Идентификатор : 1
Формат : AVC
Формат/Информация : Advanced Video Codec
Профиль формата : High@L3.1
Параметр CABAC формата : Да
Параметр ReFrames формата : 4 кадра
Идентификатор кодека : V_MPEG4/ISO/AVC
Продолжительность : 1 ч. 29 м.
Битрейт : 6415 Кбит/сек
Ширина : 1280 пикс.
Высота : 688 пикс.
Соотношение сторон : 1,860
Частота кадров : 25,000 кадр/сек
Цветовое пространство : YUV
Подвыборка цветности : 4:2:0
Битовая глубина : 8 бит
Тип развёртки : Прогрессивная
Бит/(Пиксели*Кадры) : 0.291
Размер потока : 3,88 Гбайт (89%)
Заголовок : Svadba.po.obmenu.2011.x264.BDRip.(720р).UNIONGANG.mkv
Библиотека кодирования : x264 core 119 r2106 07efeb4
Настройки программы : cabac=1 / ref=3 / deblock=1:0:0 / analyse=0x3:0x133 / me=hex / subme=5 / psy=1 / psy_rd=1.00:0.00 / mixed_ref=0 / me_range=16 / chroma_me=1 / trellis=1 / 8x8dct=1 / cqm=0 / deadzone=21,11 / fast_pskip=1 / chroma_qp_offset=0 / threads=12 / sliced_threads=0 / nr=0 / decimate=1 / interlaced=0 / bluray_compat=0 / constrained_intra=0 / bframes=16 / b_pyramid=2 / b_adapt=1 / b_bias=0 / direct=3 / weightb=0 / open_gop=0 / weightp=2 / keyint=250 / keyint_min=25 / scenecut=40 / intra_refresh=0 / rc_lookahead=40 / rc=2pass / mbtree=1 / bitrate=6415 / ratetol=1.0 / qcomp=0.60 / qpmin=0 / qpmax=69 / qpstep=4 / cplxblur=20.0 / qblur=0.5 / ip_ratio=1.40 / aq=1:1.00
Язык : Russian

Аудио
Идентификатор : 2
Формат : AC-3
Формат/Информация : Audio Coding 3
Расширение режима : CM (complete main)
Идентификатор кодека : A_AC3
Продолжительность : 1 ч. 29 м.
Вид битрейта : Постоянный
Битрейт : 640 Кбит/сек
Каналы : 6 каналов
Расположение каналов : Front: L C R, Side: L R, LFE
Частота : 48,0 КГц
Битовая глубина : 16 бит
Метод сжатия : С потерями
Размер потока : 408 Мбайт (9%)
Язык : Russian

Меню
00:00:00.000 : en:00:00:00.000
00:02:10.320 : en:00:02:10.320
00:10:31.480 : en:00:10:31.480
00:19:06.440 : en:00:19:06.440
00:32:29.000 : en:00:32:29.000
00:44:22.400 : en:00:44:22.400
00:54:26.760 : en:00:54:26.760
01:06:12.800 : en:01:06:12.800
01:19:26.880 : en:01:19:26.880




   Похожие торренты   Торрент   Размер 
В этой теме нет новых непрочитанных сообщений. Свадьба по обмену (2011) BDRip от HELLYWOOD

11 | 2

1.45 ГБ

В этой теме нет новых непрочитанных сообщений. Свадьба по обмену (2011) BDRip-AVC | Лицензия

208 | 20

1.43 ГБ

В этой теме нет новых непрочитанных сообщений. Свадьба по обмену (2011) BDRip 1080p

5 | 18

8.07 ГБ

В этой теме нет новых непрочитанных сообщений. Свадьба по обмену (2011) BDRip от HQ-ViDEO

68 | 8

1.45 ГБ

В этой теме нет новых непрочитанных сообщений. Свадьба по обмену (2011) BDRip от HQCLUB | Лицензия

59 | 9

1.45 ГБ

В этой теме нет новых непрочитанных сообщений. Свадьба по обмену (2011) Blu-Ray

0 | 19

17.21 ГБ

В этой теме нет новых непрочитанных сообщений. Свадьба по обмену (2011) BDRemux

0 | 2

14.52 ГБ




Вы не можете начинать темы
Вы не можете отвечать на сообщения
Вы не можете редактировать свои сообщения
Вы не можете удалять свои сообщения
Вы не можете добавлять вложения

Перейти:  
Для Мосгорсуда, Роскомнадзора и рекламодателей: mosgorsud-torrent[собачка]yandex.ru
 Вход
ppkBB3cker v.2 © 2008-2014 @ PPK
[ Time : 0.028s | 15 Queries | GZIP : Off ]

cron