img image001 image001 image001 image001 image001 image001 image001 image001 image001 image001 image001 image001 image001 image001 image001

Planets Sun Sun Sun
Статистика раздачи
Автор: Снежана | Размер: 5.07 ГБ | Добавлен: 24 июл 2013
Раздают: 7    Качают: 11
Скачать торрент
Скачать торрент
Описание торрента

СообщениеДобавлено: 24 июл 2013 

#77

Информация о фильме
Название: Самый лучший фильм 3-ДЭ
Год выхода: 2011
Жанр: комедия
Режиссер: Кирилл Кузин
В ролях: Гарик Харламов, Петр Винс, Екатерина Кузнецова, Александр Балуев, Михаил Ефремов, Александр Семчев, Валентин Смирнитский, Денис Яковлев, Константин Соловьев, Денис Жариков

О фильме: Макс Утесов — недооцененный режиссер-любитель. Утесов снимает свои фильмы на любительскую камеру. В это же время российские киноакадемики проводят конкурс «Самый лучший фильм России», в финал которого вышли 7 известнейших кинокартин. До церемонии объявления победителя конкурса пленки с фильмами (все в единственном экземпляре) запираются в сейф. Но Виктор Палыч подкупает организатора премии Эдуарда Рыкова, чтобы получить картины для нелицензионного копирования. Перевезти фильмы от Рыкова к Виктору Палычу должен Макс Утесов и его друг Саня. Они проваливают задание: пленки сгорают, и друзей начинают разыскивать видеопираты. Единственный способ выжить: за несколько дней переснять знаменитые российские кинокартины. Но вот в чем парадокс: копии Утёсова вполне могут оказаться качественней оригиналов…


Выпущено: Россия, Monument Pictures
Продолжительность: 01:41:37
Озвучивание: Оригинальное [лицензия]

Файл
Формат: MKV
Качество: BDRip 720p
Видео: 1280x692 (1.85:1); 5630 Kbps; 23,976 fps; 0,265 bpp
Аудио: DTS; 1536 Kbps; 48 KHz; 6 ch
General
Complete name : E:BDRip 720pBest.Film.3DE.2D.2011.720p.BluRay.Rus.DTS.HDCLUB.mkv
Format : Matroska
File size : 5.07 GiB
Duration : 1h 41mn
Overall bit rate : 7 139 Kbps
Movie name : Самый лучший фильм 3-ДЭ [2D] (2011) - Release for HDCLUB
Encoded date : UTC 2011-03-06 07:21:10
Writing application : mkvmerge v3.4.0 ('Rapunzel') built on May 15 2010 09:38:20
Writing library : libebml v0.8.0 + libmatroska v0.9.0

Video
ID : 1
Format : AVC
Format/Info : Advanced Video Codec
Format profile : High@L4.1
Format settings, CABAC : Yes
Format settings, ReFrames : 9 frames
Muxing mode : Container profile=Unknown@4.1
Codec ID : V_MPEG4/ISO/AVC
Duration : 1h 41mn
Bit rate : 5 630 Kbps
Width : 1 280 pixels
Height : 692 pixels
Display aspect ratio : 1.850
Frame rate : 23.976 fps
Color space : YUV
Chroma subsampling : 4:2:0
Bit depth : 8 bits
Scan type : Progressive
Bits/(Pixel*Frame) : 0.265
Stream size : 3.89 GiB (77%)
Title : Release for HDCLUB
Writing library : x264 core 114 r1913 5fd3dce
Encoding settings : cabac=1 / ref=9 / deblock=1:-3:-3 / analyse=0x3:0x133 / me=tesa / subme=10 / psy=1 / psy_rd=1.10:0.10 / mixed_ref=1 / me_range=32 / chroma_me=1 / trellis=2 / 8x8dct=1 / cqm=0 / deadzone=21,11 / fast_pskip=0 / chroma_qp_offset=-3 / threads=6 / sliced_threads=0 / nr=0 / decimate=0 / interlaced=0 / constrained_intra=0 / bframes=7 / b_pyramid=2 / b_adapt=2 / b_bias=0 / direct=3 / weightb=1 / open_gop=0 / weightp=2 / keyint=250 / keyint_min=23 / scenecut=40 / intra_refresh=0 / rc_lookahead=40 / rc=2pass / mbtree=0 / bitrate=5630 / ratetol=1.0 / qcomp=0.60 / qpmin=10 / qpmax=51 / qpstep=4 / cplxblur=20.0 / qblur=0.5 / vbv_maxrate=50000 / vbv_bufsize=62500 / nal_hrd=none / ip_ratio=1.40 / pb_ratio=1.30 / aq=2:0.65
Language : Russian
Matrix coefficients : BT.709-5, BT.1361, IEC 61966-2-4 709, SMPTE RP177

Audio
ID : 2
Format : DTS
Format/Info : Digital Theater Systems
Codec ID : A_DTS
Duration : 1h 41mn
Bit rate mode : Constant
Bit rate : 1 510 Kbps
Channel(s) : 6 channels
Channel positions : Front: L C R, Side: L R, LFE
Sampling rate : 48.0 KHz
Bit depth : 24 bits
Stream size : 1.07 GiB (21%)
Title : DTS; 1536 Kbps @ 5.1 ch | (-core)
Language : Russian

Menu
00:00:00.000 : en:00:00:00.000
00:05:30.830 : en:00:05:30.830
00:10:30.755 : en:00:10:30.755
00:18:28.316 : en:00:18:28.316
00:24:19.208 : en:00:24:19.208
00:31:44.444 : en:00:31:44.444
00:38:19.923 : en:00:38:19.923
00:43:02.580 : en:00:43:02.580
00:47:15.249 : en:00:47:15.249
00:51:35.926 : en:00:51:35.926
00:56:31.638 : en:00:56:31.638
01:00:02.682 : en:01:00:02.682
01:04:45.256 : en:01:04:45.256
01:11:34.999 : en:01:11:34.999
01:19:58.627 : en:01:19:58.627
01:26:00.655 : en:01:26:00.655
01:32:17.657 : en:01:32:17.657
01:38:00.458 : en:01:38:00.458




   Похожие торренты   Торрент   Размер 
В этой теме нет новых непрочитанных сообщений. Самый худший фильм / Not Another Not Another Movie (2011) BDRip 720p

2 | 1

4.25 ГБ

В этой теме нет новых непрочитанных сообщений. Самый лучший фильм 3-ДЭ (2011) BDRip 720p от NOLIMITS-TEAM

172 | 5

2.18 ГБ

В этой теме нет новых непрочитанных сообщений. Фильм, фильм, фильм. Сборник мультфильмов (1968-1995) DVDRip

49 | 8

873.29 МБ

В этой теме нет новых непрочитанных сообщений. Чистосердечное признание. Фильм фильм фильм (2010) SATRip

0 | 3

454.7 МБ

В этой теме нет новых непрочитанных сообщений. Фильм, фильм, фильм (1968) DVDRip от Lukavaya

37 | 10

370.36 МБ

В этой теме нет новых непрочитанных сообщений. Самый лучший фильм 3-ДЭ (2011) BDRip от HQRips

3 | 4

1.87 ГБ

В этой теме нет новых непрочитанных сообщений. Самый лучший фильм 3-ДЭ (2011) BDRip от HQCLUB

15 | 4

1.46 ГБ




Вы не можете начинать темы
Вы не можете отвечать на сообщения
Вы не можете редактировать свои сообщения
Вы не можете удалять свои сообщения
Вы не можете добавлять вложения

Перейти:  
Для Мосгорсуда, Роскомнадзора и рекламодателей: mosgorsud-torrent[собачка]yandex.ru
 Вход
ppkBB3cker v.2 © 2008-2014 @ PPK
[ Time : 0.527s | 15 Queries | GZIP : Off ]

Торрент трекер RUTOR.IN, Не можете зайти на rutor.org? Какой новый адрес рутор? Какое зеркало рутор? Не работает rutor.org и зеркала? Тогда наш торрент специально для вас. Rutor.in неофициальное зеркало rutor. В случае если у Вас заблокирован rutor или вдруг Вы не можете на него зайти, то Вы без труда сможете скачать бесплатно и без рекламы последние новинки кино, игр, сериалов и прочего у нас, на Rutor.in. Не нужно использовать прокси, чтобы зайти на рутор, достаточно воспользоваться нашим ресурсом. Все новые фильмы, игры, сериалы, книги и музыка за 2013 и 2014 годы через торрент бесплатно. Скачивайте фильмы в хорошем качестве, игры для пк, xbox, playstation без регистрации. У нас вы найдете новые Зарубежные сериалы и Русские сериалы 2013, 2014, 2015 годов. Оставайтесь с нами, качайте любимые фильмы, игры, сериалы, книги и музыку.
cron