img image001 image001 image001 image001 image001 image001 image001 image001 image001 image001 image001 image001 image001 image001 image001

Planets Sun Sun Sun
Статистика раздачи
Автор: Снежана | Размер: 6.82 ГБ | Добавлен: 24 июл 2013
Раздают: 21    Качают: 6
Скачать торрент
Скачать торрент
Описание торрента

СообщениеДобавлено: 24 июл 2013 

#77

Название: Темный мир
Год выхода: 2010
Страна: Россия
Жанр: фэнтези, триллер
Режиссер: Антон Мегердичев
В ролях: Светлана Иванова, Иван Жидков, Елена Панова, Сергей Угрюмов, Владимир Носик, Илья Алексеев, Мария Кожевникова, Ксения Радченко, Захар Хунгуреев, Татьяна Кузнецова

О фильме: Группа студентов отправляется в экспедицию по глухим северным деревням. В одной из них главная героиня — девушка, увлеченная мистикой и романтикой загробного мира — находит древний могильник, а в нем — магический щит. Дотронувшись до щита, она пробуждает гнев духов прошлого и приобретает сверхчеловеческие способности. Теперь студентам придется вступить в противостояние с силами зла.


Информация о файле:
Качество: BDRip 1080p
Продолжительность: 01:45:24
Язык (перевод):
оригинальная русская дорожка
Субтитры: нет
Формат: MKV
Формат 3D: Half SideBySide / Горизонтальная анаморфная стереопара

Видео: AVC, 1920x1080, 16:9, 8637 Kbps, 23.976fps
Аудио: AC3, 6ch, 48 KHz, 448 Kbps
Complete name : D:3d MoviesDARK_MIR_3D_sbs.mkv
Format : Matroska
File size : 6.82 GiB
Duration : 1h 45mn
Overall bit rate : 9 269 Kbps
Movie name : DARK_MIR_D2_3D.Title3.Bluray3DRip
Encoded date : UTC 2011-05-14 11:32:07
Writing application : DVDFab
Writing library : libebml v0.7.8 + libmatroska v0.8.1

Video
ID : 1
Format : AVC
Format/Info : Advanced Video Codec
Format profile : High@L5.1
Format settings, CABAC : Yes
Format settings, ReFrames : 2 frames
Codec ID : V_MPEG4/ISO/AVC
Duration : 1h 45mn
Bit rate mode : Variable
Bit rate : 8 637 Kbps
Maximum bit rate : 13.3 Mbps
Width : 1 920 pixels
Height : 1 080 pixels
Display aspect ratio : 16:9
Frame rate : 23.976 fps
Color space : YUV
Chroma subsampling : 4:2:0
Bit depth : 8 bits
Scan type : Progressive
Bits/(Pixel*Frame) : 0.174
Stream size : 6.36 GiB (93%)

Audio
ID : 2
Format : AC-3
Format/Info : Audio Coding 3
Mode extension : CM (complete main)
Codec ID : A_AC3
Duration : 1h 45mn
Bit rate mode : Constant
Bit rate : 448 Kbps
Channel(s) : 6 channels
Channel positions : Front: L C R, Side: L R, LFE
Sampling rate : 48.0 KHz
Bit depth : 16 bits
Compression mode : Lossy
Stream size : 338 MiB (5%)




   Похожие торренты   Торрент   Размер 
В этой теме нет новых непрочитанных сообщений. Темный рыцарь: Возрождение легенды / The Dark Knight Rises (2012) BDRip 1080p от HQ-ViDEO | IMAX | Лицензия

67 | 12

17.71 ГБ

В этой теме нет новых непрочитанных сообщений. Чжун Куй: Снежная дева и тёмный кристалл / Zhong Kui fu mo: Xue yao mo ling (2015) BDRip 1080p от Ash61 | 3D-Video | halfOU | L2

154 | 14

10.24 ГБ

В этой теме нет новых непрочитанных сообщений. Темный мир (2010) DVD9 | 2D + 3D-Video

0 | 6

7.68 ГБ

В этой теме нет новых непрочитанных сообщений. Темный мир (2010) DVD5 | 3D-Video

3 | 2

3.44 ГБ

В этой теме нет новых непрочитанных сообщений. Темный мир (2010) DVDRip от ExKinoRay | 3D-Video

101 | 7

1.47 ГБ

В этой теме нет новых непрочитанных сообщений. Темный рыцарь / The Dark Knight (2008) BDRip от HQ-ViDEO

51 | 16

2.59 ГБ

В этой теме нет новых непрочитанных сообщений. Темный этаж / Dark Floors (2008) BDRip от HQ-VIDEO

1 | 3

1.67 ГБ




Вы не можете начинать темы
Вы не можете отвечать на сообщения
Вы не можете редактировать свои сообщения
Вы не можете удалять свои сообщения
Вы не можете добавлять вложения

Перейти:  
Для Мосгорсуда, Роскомнадзора и рекламодателей: mosgorsud-torrent[собачка]yandex.ru
 Вход
ppkBB3cker v.2 © 2008-2014 @ PPK
[ Time : 0.050s | 14 Queries | GZIP : Off ]

Торрент трекер RUTOR.IN, Не можете зайти на rutor.org? Какой новый адрес рутор? Какое зеркало рутор? Не работает rutor.org и зеркала? Тогда наш торрент специально для вас. Rutor.in неофициальное зеркало rutor. В случае если у Вас заблокирован rutor или вдруг Вы не можете на него зайти, то Вы без труда сможете скачать бесплатно и без рекламы последние новинки кино, игр, сериалов и прочего у нас, на Rutor.in. Не нужно использовать прокси, чтобы зайти на рутор, достаточно воспользоваться нашим ресурсом. Все новые фильмы, игры, сериалы, книги и музыка за 2013 и 2014 годы через торрент бесплатно. Скачивайте фильмы в хорошем качестве, игры для пк, xbox, playstation без регистрации. У нас вы найдете новые Зарубежные сериалы и Русские сериалы 2013, 2014, 2015 годов. Оставайтесь с нами, качайте любимые фильмы, игры, сериалы, книги и музыку.