img image001 image001 image001 image001 image001 image001 image001 image001 image001 image001 image001 image001 image001 image001 image001

Planets Sun Sun Sun
Статистика раздачи
Автор: Снежана | Размер: 4.36 ГБ | Добавлен: 24 июл 2013
Раздают: 19    Качают: 3
Скачать торрент
Скачать торрент
Описание торрента

СообщениеДобавлено: 24 июл 2013 

#77

Информация о фильме
Название: Новая земля
Год выхода: 2008
Жанр: Фантастика, боевик
Режиссер: Александр Мельник
В ролях: Константин Лавроненко, Андрей Феськов, Марат Башаров, Павел Сборщиков, Александр Самойленко, Сергей Колтаков, Евгений Титов, Владислав Абашин, Заза Чичинадзе, Виктор Жалсанов, Николай Стоцкий, Сергей Жигунов, Игорь Письменный, Максим Макаров, Рамис Ибрагимов, Дмитрий Шаракоис, Фаридунцо Рахмуталиев, Андрей Ермохин, Владимир Бадов, Томми Листер, Ингеборга Дапкунайте

О фильме:
Во всем мире отменена смертная казнь. Тюрьмы переполнены. Всё больше средств требуется для содержания осужденных на пожизненное заключение. Международные организации принимают решение о проведении эксперимента. Россия предоставляет необитаемый остров на севере, где обустраивается небольшое поселение. Туда вывозится первая экспериментальная партия заключенных из России. Им предлагают начать новую жизнь, самим устроить свое общество. Однако поселенцы начинают жить по закону "Последний — мёртвый".



Страна: Россия
Продолжительность: 01:54:46
Перевод: Оригинал

Файл
Кодек: H264
Качество: BDRip 1080p
Видео: 1920x832, 4832 Kbps, 23.976 fps
Звук: 48 kHz, AC3, 6c, 384 kbps
Субтитры: Нет

Семпл



Общее
Формат : Matroska
Версия формата : Version 2
Размер файла : 4,36 Гбайт
Продолжительность : 1 ч. 59 м.
Общий поток : 5215 Кбит/сек
Название фильма : Новая Земля [2008) BDRip 1080p от Dimok
Дата кодирования : UTC 2011-12-08 22:24:52
Программа кодирования : mkvmerge v5.1.0 ('And so it goes') built on Nov 28 2011 23:58:28
Библиотека кодирования : libebml v1.2.3 + libmatroska v1.3.0

Видео
Идентификатор : 1
Формат : AVC
Формат/Информация : Advanced Video Codec
Профиль формата : High@L4.1
Параметр CABAC формата : Да
Параметр ReFrames формата : 5 кадров
Идентификатор кодека : V_MPEG4/ISO/AVC
Продолжительность : 1 ч. 59 м.
Битрейт : 4832 Кбит/сек
Ширина : 1920 пикселей
Высота : 832 пикселя
Соотношение сторон : 2,35:1
Частота кадров : 23,976 кадра/сек
Цветовое пространство : YUV
Субдискретизация насыщенности : 4:2:0
Битовая глубина : 8 бит
Тип развёртки : Прогрессивная
Бит/(Пиксели*Кадры) : 0.126
Размер потока : 3,96 Гбайт (91%)
Библиотека кодирования : x264 core 92 r1510 33d382a
Настройки программы : cabac=1 / ref=5 / deblock=1:0:0 / analyse=0x3:0x133 / me=umh / subme=10 / psy=1 / psy_rd=1.00:0.10 / mixed_ref=1 / me_range=32 / chroma_me=1 / trellis=2 / 8x8dct=1 / cqm=0 / deadzone=21,11 / fast_pskip=0 / chroma_qp_offset=-3 / threads=6 / sliced_threads=0 / nr=0 / decimate=1 / interlaced=0 / constrained_intra=0 / bframes=6 / b_pyramid=2 / b_adapt=2 / b_bias=0 / direct=3 / wpredb=1 / wpredp=2 / keyint=240 / keyint_min=24 / scenecut=40 / intra_refresh=0 / rc_lookahead=60 / rc=2pass / mbtree=1 / bitrate=4832 / ratetol=1.0 / qcomp=0.60 / qpmin=10 / qpmax=51 / qpstep=4 / cplxblur=20.0 / qblur=0.5 / ip_ratio=1.40 / aq=1:1.00
Язык : Russian

Аудио
Идентификатор : 2
Формат : AC-3
Формат/Информация : Audio Coding 3
Расширение режима : CM (complete main)
Идентификатор кодека : A_AC3
Продолжительность : 1 ч. 59 м.
Вид битрейта : Постоянный
Битрейт : 384 Кбит/сек
Каналы : 6 каналов
Расположение каналов : Front: L C R, Side: L R, LFE
Частота : 48,0 КГц
Битовая глубина : 16 бит
Метод сжатия : С потерями
Размер потока : 329 Мбайт (7%)
Заголовок : Оригинал
Язык : Russian



   Похожие торренты   Торрент   Размер 
В этой теме нет новых непрочитанных сообщений. День, когда Земля остановилась / The Day the Earth Stood Still (2008) BDRip 1080p | D, A

120 | 15

7.95 ГБ

В этой теме нет новых непрочитанных сообщений. День, когда Земля остановилась / The Day the Earth Stood Still (2008) BDRip 1080p от NoLimits-Team

124 | 6

7.94 ГБ

В этой теме нет новых непрочитанных сообщений. Новая Земля (2008) BDRip-AVC от potroks

25 | 4

2.92 ГБ

В этой теме нет новых непрочитанных сообщений. Новая Земля (2008) BDRip от HQ-ViDEO

137 | 15

2.18 ГБ

В этой теме нет новых непрочитанных сообщений. Новая Земля (2008) BDRip 720p от HQ-ViDEO

17 | 7

6.23 ГБ

В этой теме нет новых непрочитанных сообщений. Новая Земля (2008) BDRip от R. G. Jolly Roger

305 | 12

1.46 ГБ

В этой теме нет новых непрочитанных сообщений. День, когда Земля остановилась / The Day the Earth Stood Still (2008) BDRip

223 | 12

748.92 МБ




Вы не можете начинать темы
Вы не можете отвечать на сообщения
Вы не можете редактировать свои сообщения
Вы не можете удалять свои сообщения
Вы не можете добавлять вложения

Перейти:  
Для Мосгорсуда, Роскомнадзора и рекламодателей: mosgorsud-torrent[собачка]yandex.ru
 Вход
ppkBB3cker v.2 © 2008-2014 @ PPK
[ Time : 0.129s | 14 Queries | GZIP : Off ]

Торрент трекер RUTOR.IN, Не можете зайти на rutor.org? Какой новый адрес рутор? Какое зеркало рутор? Не работает rutor.org и зеркала? Тогда наш торрент специально для вас. Rutor.in неофициальное зеркало rutor. В случае если у Вас заблокирован rutor или вдруг Вы не можете на него зайти, то Вы без труда сможете скачать бесплатно и без рекламы последние новинки кино, игр, сериалов и прочего у нас, на Rutor.in. Не нужно использовать прокси, чтобы зайти на рутор, достаточно воспользоваться нашим ресурсом. Все новые фильмы, игры, сериалы, книги и музыка за 2013 и 2014 годы через торрент бесплатно. Скачивайте фильмы в хорошем качестве, игры для пк, xbox, playstation без регистрации. У нас вы найдете новые Зарубежные сериалы и Русские сериалы 2013, 2014, 2015 годов. Оставайтесь с нами, качайте любимые фильмы, игры, сериалы, книги и музыку.