img image001 image001 image001 image001 image001 image001 image001 image001 image001 image001 image001 image001 image001 image001 image001

Planets Sun Sun Sun
Статистика раздачи
Автор: Снежана | Размер: 1.21 ГБ | Добавлен: 24 июл 2013
Раздают: 15    Качают: 4
Скачать торрент
Скачать торрент
Описание торрента

СообщениеДобавлено: 24 июл 2013 

#77

Информация о фильме
Название: Возвращение Баттерфляй
Год: 1982
Премьера: 4 июля 1983
Производство: Киностудия им. А. Довженко
Жанр: Биографическая драма

Режиссер: Олег Фиалко

В ролях: Елена Сафонова, Антра Лиедскалныня, Катя Казанцева, Иван Миколайчук, Галина Золотарева, Валентина Ивашёва, Иван Гаврилюк, Станислав Говорухин, Григорий Гладий, Мераб Тавадзе, Гия Перадзе, Эрнст Романов, Анаида Топчиян, Хелга Данцберга, Марина Юрбургская, Николай Заднепровский, Откям Искендеров, Людмила Лобза
О фильме:
Посвящен жизни и творчеству украинской певицы Соломии Крушельницкой (1873-1952), обладательнице голоса необычайной красоты и силы. В 1893-1939 она выступала в оперных театрах Европы и Америки, в 1939 вернулась на родину. Картина основана на реальных фактах жизни певицы и построена как ее воспоминания. Партии Соломии исполняет Гизела Ципола.









Страна: Россия
Продолжительность: 01:27:23
Перевод: Оригинал

Файл
Кодек: avi
Качество: SATrip
Видео: Xvid 640x480 25.00fps 1850kbps
Звук: MPEG Audio Layer 3 48000Hz stereo 128kbps

Формат : AVI
Формат/Информация : Audio Video Interleave
Размер файла : 1,21 Гбайт
Продолжительность : 1 ч. 27 м.
Общий поток : 1988 Кбит/сек
Режиссёр : SATrip by Animat (fenixclub.com)
Программа кодирования : VirtualDubMod 1.5.10.2 (build 2540/release)
Библиотека кодирования : VirtualDubMod build 2540/release

Видео
Идентификатор : 0
Формат : MPEG-4 Visual
Профиль формата : Advanced Simple@L5
Параметр BVOP формата : 2
Параметр QPel формата : Нет
Параметр GMC формата : Без точки перехода
Параметр матрицы формата : Default (MPEG)
Режим смешивания : Сжатый битовый поток
Идентификатор кодека : XVID
Идентификатор кодека/Подсказка : XviD
Продолжительность : 1 ч. 27 м.
Битрейт : 1850 Кбит/сек
Ширина : 640 пикселей
Высота : 480 пикселей
Соотношение сторон : 4:3
Частота кадров : 25,000 кадров/сек
Цветовое пространство : YUV
Субдискретизация насыщенности : 4:2:0
Битовая глубина : 8 бит
Тип развёртки : Прогрессивная
Метод сжатия : С потерями
Бит/(Пиксели*Кадры) : 0.241
Размер потока : 1,13 Гбайт (93%)
Библиотека кодирования : XviD 1.1.2 (UTC 2006-11-01)

Аудио
Идентификатор : 1
Формат : MPEG Audio
Версия формата : Version 1
Профиль формата : Layer 3
Режим : Joint stereo
Идентификатор кодека : 55
Идентификатор кодека/Подсказка : MP3
Продолжительность : 1 ч. 27 м.
Вид битрейта : Постоянный
Битрейт : 128 Кбит/сек
Каналы : 2 канала
Частота : 48,0 КГц
Метод сжатия : С потерями
Задержка видео : 48 мс.
Размер потока : 80,0 Мбайт (6%)
Выравнивание : Соединение по промежуткам
Продолжительность промежутка : 40 мс. (1,00 видеокадр)
Время предзагрузки промежутка : 504 мс.



   Похожие торренты   Торрент   Размер 
В этой теме нет новых непрочитанных сообщений. М. Баттерфляй / M. Butterfly (1993) DVDRip-AVC от Temperest

7 | 2

1.56 ГБ

В этой теме нет новых непрочитанных сообщений. Возвращение резидента (1982) DVDRip

125 | 5

832.87 МБ

В этой теме нет новых непрочитанных сообщений. Возвращение резидента (1982) DVDRip-AVC от ExKinoRay

27 | 4

2.38 ГБ

В этой теме нет новых непрочитанных сообщений. Возвращение солдата / The Return of the Soldier (1982) DVDRip от egoleshik | P, A

55 | 14

1.48 ГБ

В этой теме нет новых непрочитанных сообщений. Возвращение Мартина Герра / Le retour de Martin Guerre (1982) HDRip от Lebanon

21 | 4

1.46 ГБ

В этой теме нет новых непрочитанных сообщений. Возвращение (2012) SATRip

38 | 5

1.31 ГБ

В этой теме нет новых непрочитанных сообщений. Возвращение (1940) SATRip-AVC от New-Team

12 | 8

1.09 ГБ




Вы не можете начинать темы
Вы не можете отвечать на сообщения
Вы не можете редактировать свои сообщения
Вы не можете удалять свои сообщения
Вы не можете добавлять вложения

Перейти:  
Для Мосгорсуда, Роскомнадзора и рекламодателей: mosgorsud-torrent[собачка]yandex.ru
 Вход
ppkBB3cker v.2 © 2008-2014 @ PPK
[ Time : 0.017s | 15 Queries | GZIP : Off ]

Торрент трекер RUTOR.IN, Не можете зайти на rutor.org? Какой новый адрес рутор? Какое зеркало рутор? Не работает rutor.org и зеркала? Тогда наш торрент специально для вас. Rutor.in неофициальное зеркало rutor. В случае если у Вас заблокирован rutor или вдруг Вы не можете на него зайти, то Вы без труда сможете скачать бесплатно и без рекламы последние новинки кино, игр, сериалов и прочего у нас, на Rutor.in. Не нужно использовать прокси, чтобы зайти на рутор, достаточно воспользоваться нашим ресурсом. Все новые фильмы, игры, сериалы, книги и музыка за 2013 и 2014 годы через торрент бесплатно. Скачивайте фильмы в хорошем качестве, игры для пк, xbox, playstation без регистрации. У нас вы найдете новые Зарубежные сериалы и Русские сериалы 2013, 2014, 2015 годов. Оставайтесь с нами, качайте любимые фильмы, игры, сериалы, книги и музыку.