img image001 image001 image001 image001 image001 image001 image001 image001 image001 image001 image001 image001 image001 image001 image001

Planets Sun Sun Sun
Статистика раздачи
Автор: Снежана | Размер: 744.75 МБ | Добавлен: 24 июл 2013
Раздают: 3    Качают: 3
Скачать торрент
Скачать торрент
Описание торрента

СообщениеДобавлено: 24 июл 2013 

#77

Информация о фильме
Название: 2 дня
Год выхода: 2011
Жанр: драма, комедия
Режиссер: Авдотья Смирнова
В ролях: Ксения Раппопорт, Фёдор Бондарчук, Ирина Розанова, Евгений Муравич, Геннадий Смирнов, Леся Кудряшова, Константин Шелестун, Анна Михалкова

О фильме:
Петр Дроздов, высокопоставленный чиновник из Москвы, приезжает в провинциальный музей полузабытого классика русской литературы по просьбе губернатора области, который хочет отнять у музея земельные владения и построить на них новую резиденцию. И поначалу Дроздов поддерживает это решение, но знакомство с Машей, молодым литературоведом, работающей в музее заместителем директора, меняет его взгляд не только на эту проблему, но и вообще на всю его жизнь…

Страна: Россия
Студия: Централ Партнершип
Продолжительность: 01:29:43
Перевод: Не требуется

Файл
Кодек: XviD / MP3
Качество: BDRip
Видео: XviD, 640x272 (2.35:1), 25 fps, ~1022 kbps avg, 0.23 bit/pixel
Звук: MP3, 48 kHz, 2 ch, ~128.00 kbps avg

Общее
Полное имя : D:Torrent2 дня_7452 дня_745.avi
Формат : AVI
Формат/Информация : Audio Video Interleave
Размер файла : 745 Мбайт
Продолжительность : 1 ч. 29 м.
Общий поток : 1160 Кбит/сек
Программа кодирования : VirtualDubModRus 1.5.10.2 (build 2540/release)
Библиотека кодирования : VirtualDubMod build 2540/release

Видео
Идентификатор : 0
Формат : MPEG-4 Visual
Профиль формата : Advanced Simple@L5
Параметр BVOP формата : 2
Параметр QPel формата : Нет
Параметр GMC формата : Без точки перехода
Параметр матрицы формата : Выборочная
Идентификатор кодека : XVID
Идентификатор кодека/Подсказка : XviD
Продолжительность : 1 ч. 29 м.
Битрейт : 1023 Кбит/сек
Ширина : 640 пикселей
Высота : 272 пикселя
Соотношение сторон : 2,35:1
Частота кадров : 25,000 кадров/сек
Цветовое пространство : YUV
Субдискретизация насыщенности : 4:2:0
Битовая глубина : 8 бит
Тип развёртки : Прогрессивная
Метод сжатия : С потерями
Бит/(Пиксели*Кадры) : 0.235
Размер потока : 656 Мбайт (88%)
Библиотека кодирования : XviD 64

Аудио
Идентификатор : 1
Формат : MPEG Audio
Версия формата : Version 1
Профиль формата : Layer 3
Режим : Joint stereo
Расширение режима : MS Stereo
Идентификатор кодека : 55
Идентификатор кодека/Подсказка : MP3
Продолжительность : 1 ч. 29 м.
Вид битрейта : Постоянный
Битрейт : 128 Кбит/сек
Каналы : 2 канала
Частота : 48,0 КГц
Метод сжатия : С потерями
Размер потока : 82,1 Мбайт (11%)
Выравнивание : Разделение по промежуткам
Продолжительность промежутка : 40 мс. (1,00 видеокадр)
Время предзагрузки промежутка : 500 мс.




   Похожие торренты   Торрент   Размер 
В этой теме нет новых непрочитанных сообщений. VA - Hard Bass 2011: The Live Registration (2011) BDRip от HQ-ViDEO

2 | 1

1.46 ГБ

В этой теме нет новых непрочитанных сообщений. VA - Hard Bass 2011: The Live Registration (2011) BDRip 1080p

1 | 1

7.94 ГБ

В этой теме нет новых непрочитанных сообщений. Kylie Minogue - Aphrodite Les Folies Tour 2011 - Live in London 3D (2011) BDRip 1080p | 3D-Video

8 | 3

18.41 ГБ

В этой теме нет новых непрочитанных сообщений. Радио Маяк - Ранеты [14.01.2011 - 10.06.2011] [17.10.2011 - 27.01.2012] (2011) MP3

0 | 24

18.68 ГБ

В этой теме нет новых непрочитанных сообщений. Гонка Чемпионов 2011 Кубок наций+Личный зачёт / Race of Champions 2011 (2011) SATRip

0 | 2

3.86 ГБ

В этой теме нет новых непрочитанных сообщений. Формула 1. Сезон 2011. Этап 9 из 19. Гран-При Великобритании 2011. Квалификация (2011) SATRip от tenow

0 | 2

1.05 ГБ

В этой теме нет новых непрочитанных сообщений. Формула 1. Сезон 2011. Этап 12 из 19. Гран-При Бельгии 2011. Квалификация (2011) SATRip от tenow

1 | 2

898.27 МБ




Вы не можете начинать темы
Вы не можете отвечать на сообщения
Вы не можете редактировать свои сообщения
Вы не можете удалять свои сообщения
Вы не можете добавлять вложения

Перейти:  
Для Мосгорсуда, Роскомнадзора и рекламодателей: mosgorsud-torrent[собачка]yandex.ru
 Вход
ppkBB3cker v.2 © 2008-2014 @ PPK
[ Time : 0.057s | 14 Queries | GZIP : Off ]

Торрент трекер RUTOR.IN, Не можете зайти на rutor.org? Какой новый адрес рутор? Какое зеркало рутор? Не работает rutor.org и зеркала? Тогда наш торрент специально для вас. Rutor.in неофициальное зеркало rutor. В случае если у Вас заблокирован rutor или вдруг Вы не можете на него зайти, то Вы без труда сможете скачать бесплатно и без рекламы последние новинки кино, игр, сериалов и прочего у нас, на Rutor.in. Не нужно использовать прокси, чтобы зайти на рутор, достаточно воспользоваться нашим ресурсом. Все новые фильмы, игры, сериалы, книги и музыка за 2013 и 2014 годы через торрент бесплатно. Скачивайте фильмы в хорошем качестве, игры для пк, xbox, playstation без регистрации. У нас вы найдете новые Зарубежные сериалы и Русские сериалы 2013, 2014, 2015 годов. Оставайтесь с нами, качайте любимые фильмы, игры, сериалы, книги и музыку.