img image001 image001 image001 image001 image001 image001 image001 image001 image001 image001 image001 image001 image001 image001 image001

Planets Sun Sun Sun
Статистика раздачи
Автор: Снежана | Размер: 746.02 МБ | Добавлен: 24 июл 2013
Раздают: 11    Качают: 4
Скачать торрент
Скачать торрент
Описание торрента

СообщениеДобавлено: 24 июл 2013 

#77

Информация о фильме
Название: Прячься!
Год выхода: 2010
Жанр: триллер
Режиссер: Джонни О’Рейли / Johnny O'Reilly
В ролях: Сергей Гармаш, Алексей Гуськов, Петр Логачев, Антон Шагин, Марина Александрова, Егор Пазенко, Сергей Юшкевич, Владимир Гусев

О фильме:
На затерянной высоко в горах метеостанции несут службу несколько человек. Однажды они перестают выходить на связь, руководство высылает на станцию спасателей, которые находят распахнутые настежь двери, еще теплые угли в котельной, неработающую радиостанцию — и никого.

Подозреваются все, кто находился на станции: двое метеорологов с безупречным послужным списком и странными увлечениями: один помешан на поисках снежного человека, другой часами просиживает над сооружением из спичек копий памятников архитектуры; их помощник 19-летний Ромаш, умеющий исчезать и прятаться так, что никто не может найти; а так же появившиеся накануне в окрестностях станции двое спелеологов-любителей: красавица Ирина и ее муж Вадим.
Официальный сайт

Страна: Россия, Германия
Продолжительность: 01:19:52
Перевод: Не требуется

Файл
Кодек: XviD / MP3
Качество: DVDRip
Видео: XviD, 720x320 (2.25:1), 25.000 fps, 1 171 Kbps (0.203 bit/pixel)
Звук: MP3, 48.0 KHz, 2 ch, 128 Kbps, CBR (Russian)

General
Complete name : E:Прячься!_DVDRip.745_[Rutor.org].avi
Format : AVI
Format/Info : Audio Video Interleave
File size : 746 MiB
Duration : 1h 19mn
Overall bit rate : 1 306 Kbps
Writing application : VirtualDubMod 1.5.4.1 (build 2178/release)
Writing library : VirtualDubMod build 2178/release

Video
ID : 0
Format : MPEG-4 Visual
Format profile : Advanced Simple@L5
Format settings, BVOP : No
Format settings, QPel : No
Format settings, GMC : No warppoints
Format settings, Matrix : Custom
Codec ID : XVID
Codec ID/Hint : XviD
Duration : 1h 19mn
Bit rate : 1 171 Kbps
Width : 720 pixels
Height : 320 pixels
Display aspect ratio : 2.25:1
Frame rate : 25.000 fps
Color space : YUV
Chroma subsampling : 4:2:0
Bit depth : 8 bits
Scan type : Progressive
Compression mode : Lossy
Bits/(Pixel*Frame) : 0.203
Stream size : 669 MiB (90%)
Writing library : XviD 64

Audio
ID : 1
Format : MPEG Audio
Format version : Version 1
Format profile : Layer 3
Mode : Joint stereo
Mode extension : MS Stereo
Codec ID : 55
Codec ID/Hint : MP3
Duration : 1h 19mn
Bit rate mode : Constant
Bit rate : 128 Kbps
Channel(s) : 2 channels
Sampling rate : 48.0 KHz
Compression mode : Lossy
Stream size : 73.1 MiB (10%)
Alignment : Aligned on interleaves
Interleave, duration : 80 ms (2.00 video frames)
Interleave, preload duration : 504 ms
Writing library : LAME3.99r
Encoding settings : -m j -V 4 -q 2 -lowpass 17 -b 128
Language : Russian




   Похожие торренты   Торрент   Размер 
В этой теме нет новых непрочитанных сообщений. Прячься! (2010) DVDRip от Киномагия

16 | 5

1.06 ГБ

В этой теме нет новых непрочитанных сообщений. Прячься, бабушка, мы уже едем! / To Grandmother's House We Go (1992) DVDRip

24 | 4

1.46 ГБ

В этой теме нет новых непрочитанных сообщений. Игра в прятки / Прячься и кричи / Hide and go shriek (1988) DVDRip от olegek70 | P

11 | 4

1.45 ГБ

В этой теме нет новых непрочитанных сообщений. Каннские львы 2010 / Cannes Lions 2010 (2010) DVDRip

154 | 14

1.37 ГБ

В этой теме нет новых непрочитанных сообщений. Моби Дик: Охота на монстра / 2010: Moby Dick (2010) DVDRip | Лицензия

74 | 14

1.46 ГБ

В этой теме нет новых непрочитанных сообщений. Рыцарь дорог 2010 / Knight rider 2010 (1994) DVDRip

108 | 10

697.39 МБ

В этой теме нет новых непрочитанных сообщений. Тамала 2010 / Tamala 2010: A Punk Cat in Space (2002) DVDRip от KinoRay & Sheikn | A

71 | 18

701.57 МБ




Вы не можете начинать темы
Вы не можете отвечать на сообщения
Вы не можете редактировать свои сообщения
Вы не можете удалять свои сообщения
Вы не можете добавлять вложения

Перейти:  
Для Мосгорсуда, Роскомнадзора и рекламодателей: mosgorsud-torrent[собачка]yandex.ru
 Вход
ppkBB3cker v.2 © 2008-2014 @ PPK
[ Time : 0.055s | 14 Queries | GZIP : Off ]

Торрент трекер RUTOR.IN, Не можете зайти на rutor.org? Какой новый адрес рутор? Какое зеркало рутор? Не работает rutor.org и зеркала? Тогда наш торрент специально для вас. Rutor.in неофициальное зеркало rutor. В случае если у Вас заблокирован rutor или вдруг Вы не можете на него зайти, то Вы без труда сможете скачать бесплатно и без рекламы последние новинки кино, игр, сериалов и прочего у нас, на Rutor.in. Не нужно использовать прокси, чтобы зайти на рутор, достаточно воспользоваться нашим ресурсом. Все новые фильмы, игры, сериалы, книги и музыка за 2013 и 2014 годы через торрент бесплатно. Скачивайте фильмы в хорошем качестве, игры для пк, xbox, playstation без регистрации. У нас вы найдете новые Зарубежные сериалы и Русские сериалы 2013, 2014, 2015 годов. Оставайтесь с нами, качайте любимые фильмы, игры, сериалы, книги и музыку.