img image001 image001 image001 image001 image001 image001 image001 image001 image001 image001 image001 image001 image001 image001 image001

Planets Sun Sun Sun
Статистика раздачи
Автор: Снежана | Размер: 750.82 МБ | Добавлен: 24 июл 2013
Раздают: 39    Качают: 4
Скачать торрент
Скачать торрент
Описание торрента

СообщениеДобавлено: 24 июл 2013 

#77

Информация о фильме
Название: Про любоff
Год выхода: 2010
Жанр: мелодрама
Режиссер: Ольга Субботина
В ролях: Фёдор Бондарчук, Оксана Фандера, Ольга Сутулова, Мария Машкова, Евгений Стычкин, Андрей Кузичев, Анна Старшенбаум, Юозас Будрайтис, Александр Пугачев, Антон Степанов

О фильме:
У девушки Даши, приехавшей с подругой «покорять» Москву, редкая специальность — преподаватель техники речи, а жизнь — самая обыкновенная: съемная квартира, невысокие гонорары и занятия с утра до вечера. Однажды Даша получает выгодное предложение — дать уроки преуспевающему бизнесмену Владу, участвующему в политических выборах. У героев начинается бурный роман. Но случайная встреча с женой Влада заставляет Дашу взглянуть на происходящее совсем с другой стороны. И Влад оказывается совсем не героем романа и вовсе не мужчиной мечты…

Страна: Россия
Студия: ПРОФИТ
Продолжительность: 01:46:17
Перевод: Не требуется

Файл
Кодек: XviD / MP3
Качество: DVDRip
Видео: XviD, 672x352 (1.81:1), 25 fps, 850 Kbps
Звук: MP3, 48 кГц, stereo, 128 kbps (cbr)

General
Complete name : E:KINOPro.luboff.(2010).DVDRip.avi
Format : AVI
Format/Info : Audio Video Interleave
File size : 751 MiB
Duration : 1h 46mn
Overall bit rate : 988 Kbps
Writing application : VirtualDubModRus 1.5.10.2 (build 2540/release)
Writing library : VirtualDubMod build 2540/release

Video
ID : 0
Format : MPEG-4 Visual
Format profile : Advanced Simple@L5
Format settings, BVOP : Yes
Format settings, QPel : No
Format settings, GMC : No warppoints
Format settings, Matrix : Default (H.263)
Codec ID : XVID
Codec ID/Hint : XviD
Duration : 1h 46mn
Bit rate : 850 Kbps
Width : 672 pixels
Height : 352 pixels
Display aspect ratio : 1.909
Frame rate : 25.000 fps
Color space : YUV
Chroma subsampling : 4:2:0
Bit depth : 8 bits
Scan type : Progressive
Bits/(Pixel*Frame) : 0.144
Stream size : 646 MiB (86%)
Writing library : XviD 1.2.1 (UTC 2008-12-04)

Audio
ID : 1
Format : MPEG Audio
Format version : Version 1
Format profile : Layer 3
Codec ID : 55
Codec ID/Hint : MP3
Duration : 1h 46mn
Bit rate mode : Constant
Bit rate : 128 Kbps
Channel(s) : 2 channels
Sampling rate : 48.0 KHz
Stream size : 97.3 MiB (13%)
Alignment : Aligned on interleaves
Interleave, duration : 40 ms (1.00 video frame)
Interleave, preload duration : 504 ms
Writing library : LAME3.98r
Encoding settings : -m s -V 4 -q 2 -lowpass 17 -b 128




   Похожие торренты   Торрент   Размер 
В этой теме нет новых непрочитанных сообщений. Про любоff (2010) DVDRip

185 | 17

1.45 ГБ

В этой теме нет новых непрочитанных сообщений. Про любоff (2010) DVDRip-AVC

33 | 3

1.45 ГБ

В этой теме нет новых непрочитанных сообщений. Про любоff (2010) DVD9

9 | 2

7.01 ГБ

В этой теме нет новых непрочитанных сообщений. Про любовь / PRO Любоff [01-11 из 11] (2011) IPTVRip

0 | 2

6.45 ГБ

В этой теме нет новых непрочитанных сообщений. Каннские львы 2010 / Cannes Lions 2010 (2010) DVDRip

154 | 14

1.37 ГБ

В этой теме нет новых непрочитанных сообщений. Моби Дик: Охота на монстра / 2010: Moby Dick (2010) DVDRip | Лицензия

74 | 14

1.46 ГБ

В этой теме нет новых непрочитанных сообщений. Рыцарь дорог 2010 / Knight rider 2010 (1994) DVDRip

108 | 10

697.39 МБ




Вы не можете начинать темы
Вы не можете отвечать на сообщения
Вы не можете редактировать свои сообщения
Вы не можете удалять свои сообщения
Вы не можете добавлять вложения

Перейти:  
Для Мосгорсуда, Роскомнадзора и рекламодателей: mosgorsud-torrent[собачка]yandex.ru
 Вход
ppkBB3cker v.2 © 2008-2014 @ PPK
[ Time : 0.042s | 15 Queries | GZIP : Off ]

cron