img image001 image001 image001 image001 image001 image001 image001 image001 image001 image001 image001 image001 image001 image001 image001

Planets Sun Sun Sun
Статистика раздачи
Автор: Снежана | Размер: 4.37 ГБ | Добавлен: 24 июл 2013
Раздают: 597    Качают: 36
Скачать торрент
Скачать торрент
Описание торрента

СообщениеДобавлено: 24 июл 2013 

#77

Информация о фильме
Название: Каникулы строгого режима
Год выхода: 2009
Жанр: комедия, приключения, детектив
Режиссер: Игорь Зайцев
В ролях: Сергей Безруков, Дмитрий Дюжев, Алена Бабенко, Сабина Ахмедова, Владимир Меньшов, Алексей Кравченко, Станислав Лесной, Александр Лыков, Кирилл Плетнев, Роман Мадянов, Людмила Полякова, Михаил Богдасаров, Малхаз Абуладзе...

О фильме:
История о том, как двое не самых молодых людей, Кольцов и Сумароков, волею судьбы оказались вожатыми в пионерском лагере в компании в меру энергичного руководства и не в меру энергичных детей. Все бы ничего, да только попали они туда прямо с арестантской шконки.Сначала Кольцов, будучи весьма уважаемым профессиональным сотрудником МВД, имеющий за плечами две поездки в Чечню, вдруг по неосторожности совершает убийство своего коллеги. Стараниями родственников покойного попадает на «черную» зону, где ему не рад никто от руководящей элиты до зэков. Там он знакомится с Сумароковым. При содействии сотрудника колонии Гагарина мужчины бегут из тюрьмы и устраиваются вожатыми в пионерлагерь.



Страна: Россия
Продолжительность: 01:54:27
Перевод: Оригинал

Файл
Кодек: H264
Качество: BDRip 1080p
Видео: 1920x832, 5012 Kbps, 23.976 fps
Звук: 48 kHz, AC3, 6c, 448 kbps
Субтитры: Русские

Семпл



Общее
Формат : Matroska
Версия формата : Version 2
Размер файла : 4,37 Гбайт
Продолжительность : 1 ч. 54 м.
Общий поток : 5470 Кбит/сек
Название фильма : Каникулы строгого режима (2009) BDRip 1080p от Dimok
Дата кодирования : UTC 2011-12-30 06:16:29
Программа кодирования : mkvmerge v5.2.0 ('I can't explain') built on Dec 18 2011 18:12:03
Библиотека кодирования : libebml v1.2.3 + libmatroska v1.3.0

Видео
Идентификатор : 1
Формат : AVC
Формат/Информация : Advanced Video Codec
Профиль формата : High@L4.1
Параметр CABAC формата : Да
Параметр ReFrames формата : 5 кадров
Идентификатор кодека : V_MPEG4/ISO/AVC
Продолжительность : 1 ч. 54 м.
Битрейт : 5012 Кбит/сек
Ширина : 1920 пикселей
Высота : 832 пикселя
Соотношение сторон : 2,35:1
Частота кадров : 23,976 кадра/сек
Цветовое пространство : YUV
Субдискретизация насыщенности : 4:2:0
Битовая глубина : 8 бит
Тип развёртки : Прогрессивная
Бит/(Пиксели*Кадры) : 0.131
Размер потока : 3,93 Гбайт (90%)
Библиотека кодирования : x264 core 92 r1510 33d382a
Настройки программы : cabac=1 / ref=5 / deblock=1:0:0 / analyse=0x3:0x133 / me=umh / subme=10 / psy=1 / psy_rd=1.00:0.10 / mixed_ref=1 / me_range=32 / chroma_me=1 / trellis=2 / 8x8dct=1 / cqm=0 / deadzone=21,11 / fast_pskip=0 / chroma_qp_offset=-3 / threads=6 / sliced_threads=0 / nr=0 / decimate=1 / interlaced=0 / constrained_intra=0 / bframes=6 / b_pyramid=2 / b_adapt=2 / b_bias=0 / direct=3 / wpredb=1 / wpredp=2 / keyint=240 / keyint_min=24 / scenecut=40 / intra_refresh=0 / rc_lookahead=65 / rc=2pass / mbtree=1 / bitrate=5012 / ratetol=1.0 / qcomp=0.60 / qpmin=10 / qpmax=51 / qpstep=4 / cplxblur=20.0 / qblur=0.5 / ip_ratio=1.40 / aq=1:1.00
Язык : Russian

Аудио
Идентификатор : 2
Формат : AC-3
Формат/Информация : Audio Coding 3
Расширение режима : CM (complete main)
Идентификатор кодека : A_AC3
Продолжительность : 1 ч. 54 м.
Вид битрейта : Постоянный
Битрейт : 448 Кбит/сек
Каналы : 6 каналов
Расположение каналов : Front: L C R, Side: L R, LFE
Частота : 48,0 КГц
Битовая глубина : 16 бит
Метод сжатия : С потерями
Размер потока : 367 Мбайт (8%)
Заголовок : Оригинал
Язык : Russian

Текст
Идентификатор : 3
Формат : PGS
Режим смешивания : zlib
Идентификатор кодека : S_HDMV/PGS
Идентификатор кодека/Информация : The same subtitle format used on BDs/HD-DVDs
Язык : Russian



   Похожие торренты   Торрент   Размер 
В этой теме нет новых непрочитанных сообщений. Каникулы строгого режима (2009) BDRemux 1080p от ExKinoRay

1451 | 109

13.55 ГБ

В этой теме нет новых непрочитанных сообщений. Каникулы строгого режима (2009) BDRip-AVC от RP4 CHG

338 | 18

701.15 МБ

В этой теме нет новых непрочитанных сообщений. Каникулы строгого режима (2009) BDRip-AVC от potroks

222 | 17

1.45 ГБ

В этой теме нет новых непрочитанных сообщений. Каникулы строгого режима (2009) BDRip от Kostiks | КПК

10 | 4

392.96 МБ

В этой теме нет новых непрочитанных сообщений. Каникулы строгого режима (2009) BDRip от HQCLUB

761 | 44

1.46 ГБ

В этой теме нет новых непрочитанных сообщений. Каникулы строгого режима (2009) BDRip от HQ-ViDEO

1678 | 84

2.18 ГБ

В этой теме нет новых непрочитанных сообщений. Каникулы строгого режима (2009) BDRip от HELLYWOOD

16 | 10

2.18 ГБ




Вы не можете начинать темы
Вы не можете отвечать на сообщения
Вы не можете редактировать свои сообщения
Вы не можете удалять свои сообщения
Вы не можете добавлять вложения

Перейти:  
Для Мосгорсуда, Роскомнадзора и рекламодателей: mosgorsud-torrent[собачка]yandex.ru
 Вход
ppkBB3cker v.2 © 2008-2014 @ PPK
[ Time : 0.055s | 15 Queries | GZIP : Off ]

Торрент трекер RUTOR.IN, Не можете зайти на rutor.org? Какой новый адрес рутор? Какое зеркало рутор? Не работает rutor.org и зеркала? Тогда наш торрент специально для вас. Rutor.in неофициальное зеркало rutor. В случае если у Вас заблокирован rutor или вдруг Вы не можете на него зайти, то Вы без труда сможете скачать бесплатно и без рекламы последние новинки кино, игр, сериалов и прочего у нас, на Rutor.in. Не нужно использовать прокси, чтобы зайти на рутор, достаточно воспользоваться нашим ресурсом. Все новые фильмы, игры, сериалы, книги и музыка за 2013 и 2014 годы через торрент бесплатно. Скачивайте фильмы в хорошем качестве, игры для пк, xbox, playstation без регистрации. У нас вы найдете новые Зарубежные сериалы и Русские сериалы 2013, 2014, 2015 годов. Оставайтесь с нами, качайте любимые фильмы, игры, сериалы, книги и музыку.
cron