img image001 image001 image001 image001 image001 image001 image001 image001 image001 image001 image001 image001 image001 image001 image001

Planets Sun Sun Sun
Статистика раздачи
Автор: Снежана | Размер: 1.46 ГБ | Добавлен: 24 июл 2013
Раздают: 16    Качают: 4
Скачать торрент
Скачать торрент
Описание торрента

СообщениеДобавлено: 24 июл 2013 

Сибирь. Монамур (2011) BDRip-AVC



Жанр: драма
Страна: Россия
Режиссер: Вячеслав Росс
В ролях: Петр Зайченко, Михаил Процько, Сергей Новиков, Лидия Байрашевская, Николай Козак, Максим Емельянов, Соня Росс, Сергей Пускепалис, Юрий Гумиров, Марианна Шульц

Сюжет фильма: Сибирь. Поздняя осень. В тайге, в заброшенной деревне живет старик - старовер Иван и его 7-летний внук Лешка. Они ждут отца мальчика, который ушел 2 года назад и не вернулся. Стая бродячих собак пожирает все живое в окрестностях. Мальчик дружит с одной из этих собак, за это старик его часто ругает. Иногда дальний родственник дядя Юра привозит им еду.

Мировая премьера: 20 апреля 2011
Российская премьера: 10 ноября 2011, «Экспонента»



Продолжительность: 01:44:39
Качество видео: BDRip-AVC
Видео: кодек: x264, размер кадра: 1024x428, битрейт: 1669 кб/с, bit/pixel: 0.159
Аудио: язык: Русский , перевод: оригинал, кодек: AC3 5.1, битрейт: 320.00 кб/с



Общее
Уникальный идентификатор : 247020787304193895199208595928395541611 (0xB9D6791E195E449E9DB3652556B7EC6B)
Полное имя : D:РоздачиSibir.Monamur.2011.BDRip-AVC.PT.mkv
Формат : Matroska
Версия формата : Version 2
Размер файла : 1,46 Гбайт
Продолжительность : 1 ч. 44 м.
Общий поток : 1991 Кбит/сек
Название фильма : Сибирь. Монамур (2011) BDRip-AVC rip by rulya74
Дата кодирования : UTC 2012-01-03 05:52:47
Программа кодирования : mkvmerge v4.9.1 ('Ich will') сборка от Jul 11 2011 23:53:15
Библиотека кодирования : libebml v1.2.1 + libmatroska v1.1.1

Видео
Идентификатор : 1
Формат : AVC
Формат/Информация : Advanced Video Codec
Профиль формата : High@L4.1
Параметр CABAC формата : Да
Параметр ReFrames формата : 13 кадров
Идентификатор кодека : V_MPEG4/ISO/AVC
Продолжительность : 1 ч. 44 м.
Битрейт : 1669 Кбит/сек
Ширина : 1024 пикселя
Высота : 428 пикселей
Соотношение сторон : 2,40:1
Частота кадров : 24,000 кадра/сек
Цветовое пространство : YUV
Субдискретизация насыщенности : 4:2:0
Битовая глубина : 8 бит
Тип развёртки : Прогрессивная
Бит/(Пиксели*Кадры) : 0.159
Размер потока : 1,19 Гбайт (82%)
Библиотека кодирования : x264 core 116 r2074 2641b9e
Настройки программы : cabac=1 / ref=13 / deblock=1:-1:-1 / analyse=0x3:0x113 / me=umh / subme=10 / psy=1 / psy_rd=1.00:0.00 / mixed_ref=1 / me_range=48 / chroma_me=1 / trellis=2 / 8x8dct=1 / cqm=0 / deadzone=21,11 / fast_pskip=1 / chroma_qp_offset=-2 / threads=3 / sliced_threads=0 / nr=0 / decimate=1 / interlaced=0 / bluray_compat=0 / constrained_intra=0 / bframes=11 / b_pyramid=2 / b_adapt=1 / b_bias=0 / direct=1 / weightb=1 / open_gop=0 / weightp=2 / keyint=250 / keyint_min=24 / scenecut=40 / intra_refresh=0 / rc=2pass / mbtree=0 / bitrate=1669 / ratetol=1.0 / qcomp=0.60 / qpmin=10 / qpmax=51 / qpstep=4 / cplxblur=20.0 / qblur=0.5 / ip_ratio=1.40 / pb_ratio=1.30 / aq=1:1.00
Default : Да
Forced : Нет

Аудио
Идентификатор : 2
Формат : AC-3
Формат/Информация : Audio Coding 3
Расширение режима : CM (complete main)
Идентификатор кодека : A_AC3
Продолжительность : 1 ч. 44 м.
Вид битрейта : Постоянный
Битрейт : 320 Кбит/сек
Каналы : 6 каналов
Расположение каналов : Front: L C R, Side: L R, LFE
Частота : 48,0 КГц
Битовая глубина : 16 бит
Метод сжатия : С потерями
Размер потока : 240 Мбайт (16%)
Заголовок : Оригинал
Язык : Russian
Default : Да
Forced : Нет




   Похожие торренты   Торрент   Размер 
В этой теме нет новых непрочитанных сообщений. Сибирь. Монамур (2011) BDRip 720p

18 | 9

5.86 ГБ

В этой теме нет новых непрочитанных сообщений. Сибирь. Монамур (2011) BDRip от HELLYWOOD

37 | 7

2 ГБ

В этой теме нет новых непрочитанных сообщений. Сибирь. Монамур (2011) BDRip 1080p | Лицензия

51 | 5

8.44 ГБ

В этой теме нет новых непрочитанных сообщений. Сибирь. Монамур (2011) BDRip от HQCLUB | Лицензия

85 | 7

2 ГБ

В этой теме нет новых непрочитанных сообщений. Сибирь. Монамур (2011) Blu-Ray

0 | 4

19.26 ГБ

В этой теме нет новых непрочитанных сообщений. Сибирь. Монамур (2011) HDRip

183 | 9

746.31 МБ

В этой теме нет новых непрочитанных сообщений. Сибирь. Монамур (2011) HDRip | Лицензия

197 | 11

1.46 ГБ




Вы не можете начинать темы
Вы не можете отвечать на сообщения
Вы не можете редактировать свои сообщения
Вы не можете удалять свои сообщения
Вы не можете добавлять вложения

Перейти:  
Для Мосгорсуда, Роскомнадзора и рекламодателей: mosgorsud-torrent[собачка]yandex.ru
 Вход
ppkBB3cker v.2 © 2008-2014 @ PPK
[ Time : 0.022s | 15 Queries | GZIP : Off ]

Торрент трекер RUTOR.IN, Не можете зайти на rutor.org? Какой новый адрес рутор? Какое зеркало рутор? Не работает rutor.org и зеркала? Тогда наш торрент специально для вас. Rutor.in неофициальное зеркало rutor. В случае если у Вас заблокирован rutor или вдруг Вы не можете на него зайти, то Вы без труда сможете скачать бесплатно и без рекламы последние новинки кино, игр, сериалов и прочего у нас, на Rutor.in. Не нужно использовать прокси, чтобы зайти на рутор, достаточно воспользоваться нашим ресурсом. Все новые фильмы, игры, сериалы, книги и музыка за 2013 и 2014 годы через торрент бесплатно. Скачивайте фильмы в хорошем качестве, игры для пк, xbox, playstation без регистрации. У нас вы найдете новые Зарубежные сериалы и Русские сериалы 2013, 2014, 2015 годов. Оставайтесь с нами, качайте любимые фильмы, игры, сериалы, книги и музыку.
cron