img image001 image001 image001 image001 image001 image001 image001 image001 image001 image001 image001 image001 image001 image001 image001

Planets Sun Sun Sun
Статистика раздачи
Автор: Снежана | Размер: 4.37 ГБ | Добавлен: 24 июл 2013
Раздают: 47    Качают: 6
Скачать торрент
Скачать торрент
Описание торрента

СообщениеДобавлено: 24 июл 2013 

#77

Информация о фильме
Название: Край
Год выхода: 2010
Жанр: драма, история, отечественный
Режиссер: Алексей Учитель
В ролях: Владимир Машков, Сергей Гармаш, Владас Багдонас, Александр Баширов, Юлия Пересильд, Анна Уколова, Семен Белоцерковский, Алексей Горбунов, Вячеслав Крикунов, Аньорка Штрехель...

О фильме:
В августе 1945-го в далекий поселок с названием Крaй с войны возвращается бывший танкист Игнат, чья страсть - паровозы. Он узнает, что на уединенном острове с довоенных времен брошен немецкий паровоз, и принимается его восстанавливать. Но, оказывается, у паровоза уже есть имя - «Густав», и есть хозяйка - Эльза, дочь немецкого инженера, арестованного в начале войны. Да и для сельчан одержимый мечтой, свободный Игнат - чужак. Страсти закипают шекспировские, причем в них задействованы не только люди, но и несколько паровозов, почти живые существа, у каждого свое имя.



Страна: Россия
Продолжительность: 02:03:33
Перевод: Оригинал

Файл
Кодек: H264
Качество: BDRip 1080p
Видео: 1920x1080, 4674 Kbps, 23.976 fps
Звук: 48 kHz, AC3, 6c, 384 kbps
Субтитры: Русские

Семпл



Общее
Формат : Matroska
Версия формата : Version 2
Размер файла : 4,37 Гбайт
Продолжительность : 2 ч. 3 м.
Общий поток : 5064 Кбит/сек
Название фильма : Край (2010) BDRip 1080p от Dimok
Дата кодирования : UTC 2011-12-31 06:46:42
Программа кодирования : mkvmerge v5.2.0 ('I can't explain') built on Dec 18 2011 18:12:03
Библиотека кодирования : libebml v1.2.3 + libmatroska v1.3.0

Видео
Идентификатор : 1
Формат : AVC
Формат/Информация : Advanced Video Codec
Профиль формата : High@L4.1
Параметр CABAC формата : Да
Параметр ReFrames формата : 4 кадра
Идентификатор кодека : V_MPEG4/ISO/AVC
Продолжительность : 2 ч. 3 м.
Битрейт : 4674 Кбит/сек
Ширина : 1920 пикселей
Высота : 1080 пикселей
Соотношение сторон : 16:9
Частота кадров : 23,976 кадра/сек
Цветовое пространство : YUV
Субдискретизация насыщенности : 4:2:0
Битовая глубина : 8 бит
Тип развёртки : Прогрессивная
Бит/(Пиксели*Кадры) : 0.094
Размер потока : 3,95 Гбайт (90%)
Библиотека кодирования : x264 core 92 r1510 33d382a
Настройки программы : cabac=1 / ref=4 / deblock=1:0:0 / analyse=0x3:0x133 / me=umh / subme=10 / psy=1 / psy_rd=1.00:0.10 / mixed_ref=1 / me_range=32 / chroma_me=1 / trellis=2 / 8x8dct=1 / cqm=0 / deadzone=21,11 / fast_pskip=0 / chroma_qp_offset=-3 / threads=6 / sliced_threads=0 / nr=0 / decimate=1 / interlaced=0 / constrained_intra=0 / bframes=6 / b_pyramid=2 / b_adapt=2 / b_bias=0 / direct=3 / wpredb=1 / wpredp=2 / keyint=240 / keyint_min=24 / scenecut=40 / intra_refresh=0 / rc_lookahead=65 / rc=2pass / mbtree=1 / bitrate=4674 / ratetol=1.0 / qcomp=0.60 / qpmin=10 / qpmax=51 / qpstep=4 / cplxblur=20.0 / qblur=0.5 / ip_ratio=1.40 / aq=1:1.00
Язык : Russian

Аудио
Идентификатор : 2
Формат : AC-3
Формат/Информация : Audio Coding 3
Расширение режима : CM (complete main)
Идентификатор кодека : A_AC3
Продолжительность : 2 ч. 3 м.
Вид битрейта : Постоянный
Битрейт : 384 Кбит/сек
Каналы : 6 каналов
Расположение каналов : Front: L C R, Side: L R, LFE
Частота : 48,0 КГц
Битовая глубина : 16 бит
Метод сжатия : С потерями
Размер потока : 339 Мбайт (8%)
Заголовок : Оригинал
Язык : Russian

Текст
Идентификатор : 3
Формат : PGS
Режим смешивания : zlib
Идентификатор кодека : S_HDMV/PGS
Идентификатор кодека/Информация : The same subtitle format used on BDs/HD-DVDs
Язык : Russian



   Похожие торренты   Торрент   Размер 
В этой теме нет новых непрочитанных сообщений. Край (2010) BDRip 1080p

3 | 4

11.61 ГБ

В этой теме нет новых непрочитанных сообщений. Край (2010) BDRip от SMALL-RiP

10 | 6

1.46 ГБ

В этой теме нет новых непрочитанных сообщений. Край (2010) BDRip от HQCLUB

13 | 5

2.18 ГБ

В этой теме нет новых непрочитанных сообщений. Край (2010) BDRip-AVC от potroks

58 | 3

2.18 ГБ

В этой теме нет новых непрочитанных сообщений. Край (2010) BDRip 720p

3 | 2

5.88 ГБ

В этой теме нет новых непрочитанных сообщений. Фар Край / Far Cry (2008) BDRip 1080p

336 | 47

4.38 ГБ

В этой теме нет новых непрочитанных сообщений. Край (2010) BDRip 720p by msltel

55 | 5

5.28 ГБ




Вы не можете начинать темы
Вы не можете отвечать на сообщения
Вы не можете редактировать свои сообщения
Вы не можете удалять свои сообщения
Вы не можете добавлять вложения

Перейти:  
Для Мосгорсуда, Роскомнадзора и рекламодателей: mosgorsud-torrent[собачка]yandex.ru
 Вход
ppkBB3cker v.2 © 2008-2014 @ PPK
[ Time : 0.028s | 18 Queries | GZIP : Off ]

Торрент трекер RUTOR.IN, Не можете зайти на rutor.org? Какой новый адрес рутор? Какое зеркало рутор? Не работает rutor.org и зеркала? Тогда наш торрент специально для вас. Rutor.in неофициальное зеркало rutor. В случае если у Вас заблокирован rutor или вдруг Вы не можете на него зайти, то Вы без труда сможете скачать бесплатно и без рекламы последние новинки кино, игр, сериалов и прочего у нас, на Rutor.in. Не нужно использовать прокси, чтобы зайти на рутор, достаточно воспользоваться нашим ресурсом. Все новые фильмы, игры, сериалы, книги и музыка за 2013 и 2014 годы через торрент бесплатно. Скачивайте фильмы в хорошем качестве, игры для пк, xbox, playstation без регистрации. У нас вы найдете новые Зарубежные сериалы и Русские сериалы 2013, 2014, 2015 годов. Оставайтесь с нами, качайте любимые фильмы, игры, сериалы, книги и музыку.
cron