img image001 image001 image001 image001 image001 image001 image001 image001 image001 image001 image001 image001 image001 image001 image001

Planets Sun Sun Sun
Статистика раздачи
Автор: Снежана | Размер: 1.37 ГБ | Добавлен: 24 июл 2013
Раздают: 37    Качают: 5
Скачать торрент
Скачать торрент
Описание торрента

СообщениеДобавлено: 24 июл 2013 

#77

Информация о фильме
Название: Весенная сказка
Жанр: сказка, детский
Год выпуска: 1971
Режиссёр: Юрий Цветков
В ролях: : Наталья Богунова, Алексей Катышев, Галина Орлова, Евгений Киндинов, Георгий Вицин, Алексей Смирнов, Вера Липсток, Анатолий Обухов, Наталья Кустинская, Жанна Друтская

Описание:

Фильм-сказка по мотивам пьесы А. Островского «Снегурочка».

Заканчивается празднование Масленицы в Берендеевом царстве. Крестьянина Бобыля ругает жена, Бобылиха, что за гульбой запустил хозяйство, и отправляет в лес за дровами. Бобыль видит Снегурочку, дочь деда Мороза и Весны, которая говорит, что будет дочерью тому, кто первым ее встретил. Молодые берендеи ухаживают за Снегурочкой, но она холодна со всеми, даже с пастухом и музыкантом Лелем, которого определили на постой в избу Бобыля. В деревню приезжает богатый торговец Мизгирь, чтобы «выкупить» свою невесту Купаву, но, увидев Снегурочку, сразу влюбляется в нее, бросает Купаву и клянется, во что бы то ни стало добиться любви Снегурочки...



Страна: СССР
Продолжительность: 01:19:05
Перевод: Не требуется

Файл
Качество видео: DVDRip (рип с DVD5)
Формат видео: AVI
Видео: Xvid 688x448 (1.536:1) 25.00fps 2280kbps
Аудио: Dolby AC3 48000Hz stereo 2ch 192kbps

Семпл

General
Complete name : C:UserssamsungVideosВесенняя сказка DVDRip (1971).avi
Format : AVI
Format/Info : Audio Video Interleave
File size : 1.37 GiB
Duration : 1h 19mn
Overall bit rate : 2 481 Kbps
Writing application : VirtualDubMod 1.5.10.2 (build 2540/release)
Writing library : VirtualDubMod build 2540/release

Video
ID : 0
Format : MPEG-4 Visual
Format profile : Advanced Simple@L5
Format settings, BVOP : Yes
Format settings, QPel : No
Format settings, GMC : No warppoints
Format settings, Matrix : Default (H.263)
Muxing mode : Packed bitstream
Codec ID : XVID
Codec ID/Hint : XviD
Duration : 1h 19mn
Bit rate : 2 280 Kbps
Width : 688 pixels
Height : 448 pixels
Display aspect ratio : 3:2
Frame rate : 25.000 fps
Color space : YUV
Chroma subsampling : 4:2:0
Bit depth : 8 bits
Scan type : Progressive
Bits/(Pixel*Frame) : 0.296
Stream size : 1.26 GiB (92%)
Writing library : XviD 1.2.1 (UTC 2008-12-04)

Audio
ID : 1
Format : AC-3
Format/Info : Audio Coding 3
Mode extension : CM (complete main)
Codec ID : 2000
Duration : 1h 19mn
Bit rate mode : Constant
Bit rate : 192 Kbps
Channel(s) : 2 channels
Channel positions : Front: L R
Sampling rate : 48.0 KHz
Bit depth : 16 bits
Stream size : 109 MiB (8%)
Alignment : Aligned on interleaves
Interleave, duration : 40 ms (1.00 video frame)
Interleave, preload duration : 512 ms

Скриншоты:



Спасибо большое Vova468!



   Похожие торренты   Торрент   Размер 
В этой теме нет новых непрочитанных сообщений. Весенняя сказка / Conte de Printemps (1990) BDRip by msltel | P

22 | 13

1.81 ГБ

В этой теме нет новых непрочитанных сообщений. Весенняя сказка / Conte de Printemps (1990) BDRip 1080p by msltel | P

1 | 7

11.38 ГБ

В этой теме нет новых непрочитанных сообщений. Весенняя сказка / Conte de Printemps (1990) BDRip 720p by msltel | P

12 | 12

4.95 ГБ

В этой теме нет новых непрочитанных сообщений. Сказка о Египте (Египетская сказка) / A Tale of Egypt (1998) DVDRip

40 | 6

1012.59 МБ

В этой теме нет новых непрочитанных сообщений. Сказка о рыбаке и рыбке + Сказка о мертвой царевне и о семи богатырях (1950, 1951) DVDRip-AVC от R.G.RealMT

905 | 230

947.49 МБ

В этой теме нет новых непрочитанных сообщений. Весенняя Лихорадка США / Lauderdale (1989) DVDRip | P

210 | 13

705.78 МБ

В этой теме нет новых непрочитанных сообщений. Весенняя лихорадка / Spring fever (2009) DVDRip

0 | 6

699.99 МБ




Вы не можете начинать темы
Вы не можете отвечать на сообщения
Вы не можете редактировать свои сообщения
Вы не можете удалять свои сообщения
Вы не можете добавлять вложения

Перейти:  
Для Мосгорсуда, Роскомнадзора и рекламодателей: mosgorsud-torrent[собачка]yandex.ru
 Вход
ppkBB3cker v.2 © 2008-2014 @ PPK
[ Time : 6.378s | 15 Queries | GZIP : Off ]

Торрент трекер RUTOR.IN, Не можете зайти на rutor.org? Какой новый адрес рутор? Какое зеркало рутор? Не работает rutor.org и зеркала? Тогда наш торрент специально для вас. Rutor.in неофициальное зеркало rutor. В случае если у Вас заблокирован rutor или вдруг Вы не можете на него зайти, то Вы без труда сможете скачать бесплатно и без рекламы последние новинки кино, игр, сериалов и прочего у нас, на Rutor.in. Не нужно использовать прокси, чтобы зайти на рутор, достаточно воспользоваться нашим ресурсом. Все новые фильмы, игры, сериалы, книги и музыка за 2013 и 2014 годы через торрент бесплатно. Скачивайте фильмы в хорошем качестве, игры для пк, xbox, playstation без регистрации. У нас вы найдете новые Зарубежные сериалы и Русские сериалы 2013, 2014, 2015 годов. Оставайтесь с нами, качайте любимые фильмы, игры, сериалы, книги и музыку.