img image001 image001 image001 image001 image001 image001 image001 image001 image001 image001 image001 image001 image001 image001 image001

Planets Sun Sun Sun
Статистика раздачи
Автор: Снежана | Размер: 588.07 МБ | Добавлен: 24 июл 2013
Раздают: 16    Качают: 8
Скачать торрент
Скачать торрент
Описание торрента

СообщениеДобавлено: 24 июл 2013 

#77

Информация о фильме
Название: За двумя зайцами
Год выхода: 1961
Жанр: Комедия
Режиссер: Виктор Иванов / Viktor Ivanov
В ролях:
Олег Борисов, Маргарита Криницына, Николай Яковченко, Нонна Копержинская, Наталья Наум, Анатолий Юрченко, Константин Ершов Литвиненко, Ольга Викланд, Нина Антонова



О фильме:
Жил-был молодой бездельник по фамилии Голохвостый. В наследство от родителей ему досталась цирюльня, пребывающая в плачевном состоянии. Голохвостый большую часть времени бездельничал, кутил и играл в карты. Обанкротившись окончательно, он решает поправить свои финансовые дела женитьбой…



Страна: СССР
Студия: Украинская киностудия им. А.П.Довженко
Продолжительность: 01:11:39
Перевод: Не требуется

Файл
Кодек: H264
Качество: DVDRip-AVC
Видео: MPEG4 Video (H264), 720x544 (255:191) 25.00fps, Bit rate: 1000 Kbps, Bits/(Pixel*Frame): 0.102
Звук: Dolby AC3 44100Hz, stereo 128kbps, 2 ch
Субтитры: Отсутствуют

. . . . . . . . . . . . . . . . . . . . . . .

Complete name : За двумя зайцами (1961).mkv
Format : Matroska
Format version : Version 1
File size : 588 MiB
Duration : 1h 11mn
Overall bit rate : 1 147 Kbps
Encoded date : UTC 2012-01-14 21:54:00
Writing application : mkvmerge v2.4.0 ('Fumbling Towards Ecstasy') built on Oct 11 2008 20:13:15
Writing library : libebml v0.7.7 + libmatroska v0.8.1

Video
ID : 1
Format : AVC
Format/Info : Advanced Video Codec
Format profile : High@L5.1
Format settings, CABAC : Yes
Format settings, ReFrames : 16 frames
Codec ID : V_MPEG4/ISO/AVC
Duration : 1h 11mn
Bit rate : 1 000 Kbps
Width : 720 pixels
Height : 544 pixels
Display aspect ratio : 4:3
Original display aspect ratio : 4:3
Frame rate : 25.000 fps
Color space : YUV
Chroma subsampling : 4:2:0
Bit depth : 8 bits
Scan type : Progressive
Bits/(Pixel*Frame) : 0.102
Stream size : 511 MiB (87%)
Writing library : x264 core 80 r1378+57 6f6b50a
Encoding settings : cabac=1 / ref=16 / deblock=1:0:0 / analyse=0x3:0x113 / me=hex / subme=7 / psy=1 / psy_rd=1.0:0.0 / mixed_ref=1 / me_range=16 / chroma_me=1 / trellis=1 / 8x8dct=1 / cqm=0 / deadzone=21,11 / fast_pskip=1 / chroma_qp_offset=-2 / threads=3 / sliced_threads=0 / nr=0 / decimate=1 / mbaff=0 / constrained_intra=0 / bframes=16 / b_pyramid=0 / b_adapt=1 / b_bias=0 / direct=1 / wpredb=1 / wpredp=2 / keyint=300 / keyint_min=25 / scenecut=40 / rc_lookahead=40 / rc=abr / mbtree=1 / bitrate=1000 / ratetol=1.0 / qcomp=0.60 / qpmin=10 / qpmax=51 / qpstep=4 / ip_ratio=1.40 / aq=1:1.00

Audio
ID : 2
Format : AC-3
Format/Info : Audio Coding 3
Mode extension : CM (complete main)
Codec ID : A_AC3
Duration : 1h 11mn
Bit rate mode : Constant
Bit rate : 128 Kbps
Channel(s) : 2 channels
Channel positions : Front: L R
Sampling rate : 44.1 KHz
Bit depth : 16 bits
Compression mode : Lossy
Stream size : 65.6 MiB (11%)


Релиз от: hellgast2010



   Похожие торренты   Торрент   Размер 
В этой теме нет новых непрочитанных сообщений. За двумя зайцами (1961) DVDRip

107 | 16

1.24 ГБ

В этой теме нет новых непрочитанных сообщений. За двумя зайцами (1961) DVDRip от Youtracker

48 | 8

744.31 МБ

В этой теме нет новых непрочитанных сообщений. За двумя зайцами (1961) DVDRip-AVC от Youtracker

562 | 23

1.46 ГБ

В этой теме нет новых непрочитанных сообщений. За двумя зайцами (1961) HDTVRip-AVC от ExKinoRay

331 | 34

2.39 ГБ

В этой теме нет новых непрочитанных сообщений. За двумя зайцами (2003) SATRip

648 | 52

1.37 ГБ

В этой теме нет новых непрочитанных сообщений. Спектакль. За двумя зайцами (2006) CAMRip

3 | 4

812.37 МБ

В этой теме нет новых непрочитанных сообщений. Нечто с двумя головами / The Thing with Two Heads (1972) DVDRip-AVC | L1

2 | 4

2.15 ГБ




Вы не можете начинать темы
Вы не можете отвечать на сообщения
Вы не можете редактировать свои сообщения
Вы не можете удалять свои сообщения
Вы не можете добавлять вложения

Перейти:  
Для Мосгорсуда, Роскомнадзора и рекламодателей: mosgorsud-torrent[собачка]yandex.ru
 Вход
ppkBB3cker v.2 © 2008-2014 @ PPK
[ Time : 0.013s | 14 Queries | GZIP : Off ]
CGP output time : 0.021s | 5 Queries | GZIP : Off

Торрент трекер RUTOR.IN, Не можете зайти на rutor.org? Какой новый адрес рутор? Какое зеркало рутор? Не работает rutor.org и зеркала? Тогда наш торрент специально для вас. Rutor.in неофициальное зеркало rutor. В случае если у Вас заблокирован rutor или вдруг Вы не можете на него зайти, то Вы без труда сможете скачать бесплатно и без рекламы последние новинки кино, игр, сериалов и прочего у нас, на Rutor.in. Не нужно использовать прокси, чтобы зайти на рутор, достаточно воспользоваться нашим ресурсом. Все новые фильмы, игры, сериалы, книги и музыка за 2013 и 2014 годы через торрент бесплатно. Скачивайте фильмы в хорошем качестве, игры для пк, xbox, playstation без регистрации. У нас вы найдете новые Зарубежные сериалы и Русские сериалы 2013, 2014, 2015 годов. Оставайтесь с нами, качайте любимые фильмы, игры, сериалы, книги и музыку.