img image001 image001 image001 image001 image001 image001 image001 image001 image001 image001 image001 image001 image001 image001 image001

Planets Sun Sun Sun
Статистика раздачи
Автор: Снежана | Размер: 4.92 ГБ | Добавлен: 24 июл 2013
Раздают: 53    Качают: 62
Скачать торрент
Скачать торрент
Описание торрента

СообщениеДобавлено: 24 июл 2013 

#77

Информация о фильме
Название: Пять невест
Год выхода: 2011
Жанр: Комедия
Режиссер: Карен Оганесян
В ролях: Данила Козловский, Елизавета Боярская, Светлана Ходченкова, Юлия Пересильд, Ксения Роменкова, Ирина Пегова, Артур Смольянинов,, Владимир Яглыч, Александр Лойе, Хорен Левонян

О фильме:
Май 1945 года. Вся страна ликует и строит планы на новую послевоенную жизнь. Счастливые воины-победители, дошедшие до Берлина, мечтают вернуться героями домой. Но их не спешат отпускать... Очень расстроены этим обстоятельством бравые летчики-истребители Вадик, Леша, Гарик, Ваня и Миша. Ведь в их отсутствие всех красивых девчонок могут разобрать!


Продолжительность: 01:43:23
Озвучивание: Оригинальное [лицензия]

Файл
Формат: MKV
Качество: BDRip 720p | Лицензия
Видео: 6179 kb/s , 1280x690
Аудио: AC3, 640 kb/s (6 ch)
Субтитры: нет
Размер: 4.92 ГБ
Скачать:Сэмпл

Общее
Полное имя : B:5.Nevest.2011.O.BDRip.720p.IRONCLUB.mkv
Формат : Matroska
Версия формата : Version 2
Размер файла : 4,92 Гбайт
Продолжительность : 1 ч. 43 м.
Общий поток : 6818 Кбит/сек
Название фильма : ..::IRONCLUB::..
Дата кодирования : UTC 2012-01-20 06:39:02
Программа кодирования : mkvmerge v5.2.0 ('I can't explain') built on Dec 18 2011 18:12:03
Библиотека кодирования : libebml v1.2.3 + libmatroska v1.3.0

Видео
Идентификатор : 1
Формат : AVC
Формат/Информация : Advanced Video Codec
Профиль формата : High@L4.1
Параметр CABAC формата : Да
Параметр ReFrames формата : 9 кадров
Идентификатор кодека : V_MPEG4/ISO/AVC
Продолжительность : 1 ч. 43 м.
Битрейт : 6179 Кбит/сек
Ширина : 1280 пикселей
Высота : 690 пикселей
Соотношение сторон : 1,855
Частота кадров : 25,000 кадров/сек
Цветовое пространство : YUV
Субдискретизация насыщенности : 4:2:0
Битовая глубина : 8 бит
Тип развёртки : Прогрессивная
Бит/(Пиксели*Кадры) : 0.280
Размер потока : 4,36 Гбайт (89%)
Заголовок : ..::IRONCLUB::..
Библиотека кодирования : x264 core 116 r2074 2641b9e
Настройки программы : cabac=1 / ref=9 / deblock=1:-3:-3 / analyse=0x3:0x133 / me=umh / subme=11 / psy=1 / psy_rd=0.94:0.05 / mixed_ref=1 / me_range=32 / chroma_me=1 / trellis=2 / 8x8dct=1 / cqm=0 / deadzone=21,11 / fast_pskip=0 / chroma_qp_offset=-3 / threads=12 / sliced_threads=0 / nr=0 / decimate=1 / interlaced=0 / bluray_compat=0 / constrained_intra=0 / bframes=9 / b_pyramid=2 / b_adapt=2 / b_bias=0 / direct=3 / weightb=1 / open_gop=0 / weightp=2 / keyint=250 / keyint_min=23 / scenecut=40 / intra_refresh=0 / rc_lookahead=40 / rc=2pass / mbtree=1 / bitrate=6179 / ratetol=1.0 / qcomp=0.60 / qpmin=0 / qpmax=69 / qpstep=4 / cplxblur=20.0 / qblur=0.5 / vbv_maxrate=50000 / vbv_bufsize=62500 / nal_hrd=none / ip_ratio=1.40 / aq=1:1.00
Язык : Russian
Default : Да
Forced : Нет

Аудио
Идентификатор : 2
Формат : AC-3
Формат/Информация : Audio Coding 3
Расширение режима : CM (complete main)
Идентификатор кодека : A_AC3
Продолжительность : 1 ч. 43 м.
Вид битрейта : Постоянный
Битрейт : 640 Кбит/сек
Каналы : 6 каналов
Расположение каналов : Front: L C R, Side: L R, LFE
Частота : 48,0 КГц
Битовая глубина : 16 бит
Метод сжатия : С потерями
Размер потока : 473 Мбайт (9%)
Язык : Russian
Default : Да
Forced : Нет

Меню
00:00:00.000 : en:Chapter 01
00:02:10.000 : en:Chapter 02
00:13:04.240 : en:Chapter 03
00:24:42.639 : en:Chapter 04
00:39:21.040 : en:Chapter 05
00:52:56.080 : en:Chapter 06
01:06:34.000 : en:Chapter 07
01:18:25.360 : en:Chapter 08
01:27:49.360 : en:Chapter 09

Скриншоты



Релиз от:



   Похожие торренты   Торрент   Размер 
В этой теме нет новых непрочитанных сообщений. Пять невест (2011) DVD9 | Лицензия

30 | 8

5.95 ГБ

В этой теме нет новых непрочитанных сообщений. Пять невест (2011) DVDRip | Лицензия

175 | 68

700.43 МБ

В этой теме нет новых непрочитанных сообщений. Пять невест (2011) HDRip от Scarabey | Лицензия

51 | 14

744.15 МБ

В этой теме нет новых непрочитанных сообщений. Пять невест (2011) HDRip от Scarabey | Лицензия

232 | 50

1.45 ГБ

В этой теме нет новых непрочитанных сообщений. Пять невест (2011) BDRip-AVC от potroks

22 | 7

1.45 ГБ

В этой теме нет новых непрочитанных сообщений. Пять невест (2011) BDRip от HQ-ViDEO

20 | 14

1.45 ГБ

В этой теме нет новых непрочитанных сообщений. Пять невест (2011) BDRip от HQCLUB

521 | 30

1.45 ГБ




Вы не можете начинать темы
Вы не можете отвечать на сообщения
Вы не можете редактировать свои сообщения
Вы не можете удалять свои сообщения
Вы не можете добавлять вложения

Перейти:  
Для Мосгорсуда, Роскомнадзора и рекламодателей: mosgorsud-torrent[собачка]yandex.ru
 Вход
ppkBB3cker v.2 © 2008-2014 @ PPK
[ Time : 1.099s | 18 Queries | GZIP : Off ]

cron