img image001 image001 image001 image001 image001 image001 image001 image001 image001 image001 image001 image001 image001 image001 image001

Planets Sun Sun Sun
Статистика раздачи
Автор: Снежана | Размер: 2.18 ГБ | Добавлен: 24 июл 2013
Раздают: 0    Качают: 2
Скачать торрент
Скачать торрент
Описание торрента

СообщениеДобавлено: 24 июл 2013 

Высоцкий. Спасибо, что живой (2011) BDRip-AVC от PowerTracker

Жанр: драма, биография
Страна: Россия
Режиссер: Петр Буслов
В ролях: Оксана Акиньшина, Андрей Смоляков, Максим Леонидов, Андрей Панин, Владимир Ильин, Иван Ургант, Дмитрий Астрахан, Сергей Безруков, Сергей Шакуров, Алла Покровская
Сюжет фильма: В 1979 году КГБ Узбекской ССР готовит операцию по разоблачению жуликов — организаторов концертов ведущих артистов в Узбекистане. Для этого вербуют некоего Фридмана, являющегося одним из главных организаторов таких концертов. Фридман соглашается сотрудничать с КГБ УзССР при организации концертов Владимира Высоцкого.
Высоцкий в Москве собирается в очередную поездку за границу, в Париж. Курирующий Театр на Таганке сотрудник КГБ сообщает ему, что за организацию его гастролей в Ижевске арестовано несколько человек, в Узбекистан Высоцкому лететь не стоит, и если он намерен отправиться в Париж, то его заграничный паспорт будет готов в течение двух-трёх дней. Высоцкий возвращается домой, где встречает бригаду «Скорой помощи» и своих родителей. Врач требует от родителей дать согласие на принудительную госпитализацию их сына, но Высоцкий несколькими фразами останавливает отца, уже подписывающего это согласие. Родители уезжают, в квартире остаются «импресарио» Высоцкого Павел Леонидов и Таня Ивлева. Леонидов уговаривает Высоцкого лететь на гастроли в Узбекистан, хотя хорошо знает, как это опасно для его здоровья...

Мировая премьера: 1 декабря 2011
Российская премьера: 1 декабря 2011, «WDSSPR»

Продолжительность: 02:12:09
Качество видео: BDRip-AVC
Видео: кодек: x264, размер кадра: 1024x436, битрейт: 1726 кб/с, bit/pixel: 0.161
Аудио: язык: Русский , перевод: оригинал, кодек: AC3 5.1, битрейт: 640.00 кб/с
&
Общее
Уникальный идентификатор : 177224400968008689369574847469642464015 (0x85542D95FF7CD188AEB5FDC917D63B0F)
Полное имя : D:Vysotskiy. Spasibo, chto zhivoy.2011.BDRip-AVC.PT.mkv
Формат : Matroska
Версия формата : Version 2
Размер файла : 2,18 Гбайт
Продолжительность : 2 ч. 12 м.
Общий поток : 2366 Кбит/сек
Название фильма : Высоцкий. Спасибо, что живой (2011) BDRip-AVC rip by rulya74
Дата кодирования : UTC 2012-01-23 05:07:09
Программа кодирования : mkvmerge v4.9.1 ('Ich will') сборка от Jul 11 2011 23:53:15
Библиотека кодирования : libebml v1.2.1 + libmatroska v1.1.1
Видео
Идентификатор : 1
Формат : AVC
Формат/Информация : Advanced Video Codec
Профиль формата : High@L4.1
Параметр CABAC формата : Да
Параметр ReFrames формата : 12 кадров
Идентификатор кодека : V_MPEG4/ISO/AVC
Продолжительность : 2 ч. 12 м.
Битрейт : 1726 Кбит/сек
Ширина : 1024 пикселя
Высота : 436 пикселей
Соотношение сторон : 2,35:1
Частота кадров : 23,976 кадра/сек
Цветовое пространство : YUV
Субдискретизация насыщенности : 4:2:0
Битовая глубина : 8 бит
Тип развёртки : Прогрессивная
Бит/(Пиксели*Кадры) : 0.161
Размер потока : 1,55 Гбайт (71%)
Библиотека кодирования : x264 core 116 r2074 2641b9e
Настройки программы : cabac=1 / ref=12 / deblock=1:-1:-2 / analyse=0x3:0x113 / me=umh / subme=9 / psy=1 / psy_rd=1.00:0.00 / mixed_ref=1 / me_range=32 / chroma_me=1 / trellis=2 / 8x8dct=1 / cqm=0 / deadzone=21,11 / fast_pskip=1 / chroma_qp_offset=-2 / threads=3 / sliced_threads=0 / nr=0 / decimate=1 / interlaced=0 / bluray_compat=0 / constrained_intra=0 / bframes=13 / b_pyramid=2 / b_adapt=1 / b_bias=0 / direct=3 / weightb=1 / open_gop=0 / weightp=2 / keyint=250 / keyint_min=23 / scenecut=40 / intra_refresh=0 / rc=2pass / mbtree=0 / bitrate=1726 / ratetol=1.0 / qcomp=0.60 / qpmin=10 / qpmax=51 / qpstep=4 / cplxblur=20.0 / qblur=0.5 / ip_ratio=1.40 / pb_ratio=1.30 / aq=1:1.00
Default : Да
Forced : Нет
Аудио
Идентификатор : 2
Формат : AC-3
Формат/Информация : Audio Coding 3
Расширение режима : CM (complete main)
Идентификатор кодека : A_AC3
Продолжительность : 2 ч. 12 м.
Вид битрейта : Постоянный
Битрейт : 640 Кбит/сек
Каналы : 6 каналов
Расположение каналов : Front: L C R, Side: L R, LFE
Частота : 48,0 КГц
Битовая глубина : 16 бит
Метод сжатия : С потерями
Размер потока : 605 Мбайт (27%)
Заголовок : Оригинал
Язык : Russian
Default : Да
Forced : Нет
Меню
00:00:00.000 : :Chapter 01
00:04:04.827 : :Chapter 02
00:13:58.170 : :Chapter 03
00:24:55.160 : :Chapter 04
00:35:06.979 : :Chapter 05
00:44:29.792 : :Chapter 06
01:00:30.960 : :Chapter 07
01:21:00.647 : :Chapter 08
01:32:47.603 : :Chapter 09
01:45:18.770 : :Chapter 10
02:03:57.680 : :Chapter 11
02:08:02.216 : :Chapter 12
02:12:08.670 : :Chapter 13






   Похожие торренты   Торрент   Размер 
В этой теме нет новых непрочитанных сообщений. Высоцкий. Спасибо, что живой (2011) BDRip-AVC

5 | 3

3.35 ГБ

В этой теме нет новых непрочитанных сообщений. Высоцкий. Спасибо, что живой (2011) BDRip-AVC | iPad

3 | 4

3.36 ГБ

В этой теме нет новых непрочитанных сообщений. Высоцкий. Спасибо, что живой (2011) BDRip от HQ-ViDEO

133 | 10

2.18 ГБ

В этой теме нет новых непрочитанных сообщений. Высоцкий. Спасибо, что живой (2011) BDRip 1080p

62 | 8

4.37 ГБ

В этой теме нет новых непрочитанных сообщений. Высоцкий. Спасибо, что живой (2011) BDRip от HELLYWOOD

5 | 5

2.18 ГБ

В этой теме нет новых непрочитанных сообщений. Высоцкий. Спасибо, что живой (2011) BDRip от HQCLUB

7 | 2

2.18 ГБ

В этой теме нет новых непрочитанных сообщений. Высоцкий. Спасибо, что живой (2011) BDRip 720p

8 | 3

7.95 ГБ




Вы не можете начинать темы
Вы не можете отвечать на сообщения
Вы не можете редактировать свои сообщения
Вы не можете удалять свои сообщения
Вы не можете добавлять вложения

Перейти:  
Для Мосгорсуда, Роскомнадзора и рекламодателей: mosgorsud-torrent[собачка]yandex.ru
 Вход
ppkBB3cker v.2 © 2008-2014 @ PPK
[ Time : 0.046s | 14 Queries | GZIP : Off ]

Торрент трекер RUTOR.IN, Не можете зайти на rutor.org? Какой новый адрес рутор? Какое зеркало рутор? Не работает rutor.org и зеркала? Тогда наш торрент специально для вас. Rutor.in неофициальное зеркало rutor. В случае если у Вас заблокирован rutor или вдруг Вы не можете на него зайти, то Вы без труда сможете скачать бесплатно и без рекламы последние новинки кино, игр, сериалов и прочего у нас, на Rutor.in. Не нужно использовать прокси, чтобы зайти на рутор, достаточно воспользоваться нашим ресурсом. Все новые фильмы, игры, сериалы, книги и музыка за 2013 и 2014 годы через торрент бесплатно. Скачивайте фильмы в хорошем качестве, игры для пк, xbox, playstation без регистрации. У нас вы найдете новые Зарубежные сериалы и Русские сериалы 2013, 2014, 2015 годов. Оставайтесь с нами, качайте любимые фильмы, игры, сериалы, книги и музыку.