img image001 image001 image001 image001 image001 image001 image001 image001 image001 image001 image001 image001 image001 image001 image001

Planets Sun Sun Sun
Статистика раздачи
Автор: Снежана | Размер: 4.36 ГБ | Добавлен: 24 июл 2013
Раздают: 3    Качают: 2
Скачать торрент
Скачать торрент
Описание торрента

СообщениеДобавлено: 24 июл 2013 

#77
Информация о фильме
Название: Реальная сказка
Год выпуска: 2011
Жанр: Фэнтези, драма, комедия, семейный
Режиссер: Андрей Мармонтов
В ролях: Сергей Безруков, Леонид Ярмольник, Максим Шибаев, Анастасия Добрынина, Ирина Безрукова, Георгий Штиль, Людмила Полякова, Анна Герман, Сергей Погосян, Антон Пампушный...

Описание: Жили-были сестрица Олесенька и братец Саша… Нет, так не пойдет: кажется, прошла пора старых-добрых сказок. Даже сказочные персонажи, понимая это, переселились в наш мир: Василиса Премудрая стала учительницей, Леший — бомжом, Иван-дурак — ВДВшником, Кащей — олигархом. Злые дела творить он, конечно, не бросил. И главным его злодеянием стало то, что он лишил нас веры в чудо.



Производство: Россия, Централ Партнершип
Продолжительность: 01:41:58
Озвучивание: Оригинальное [лицензия]

Бонусы: нет

Меню: Русское, статичное, озвученное

Тип релиза: DVD5 (Сжатый)
Контейнер: DVD-Video

Видео: PAL 16:9 (720x576) 5 421 Kbps
Аудио: Russian (Dolby AC3, 6 ch) 448 Kbps
General
Complete name : D:_VideoRealnaja.skazka.2011.DVD-5.DRGVIDEO_TSVTS_04_1.VOB
Format : MPEG-PS
File size : 1 024 MiB
Duration : 23mn 54s
Overall bit rate mode : Variable
Overall bit rate : 5 988 Kbps

Video
ID : 224 (0xE0)
Format : MPEG Video
Format version : Version 2
Format profile : Main@Main
Format settings, BVOP : Yes
Format settings, Matrix : Custom
Duration : 23mn 54s
Bit rate mode : Variable
Bit rate : 5 421 Kbps
Maximum bit rate : 9 000 Kbps
Width : 720 pixels
Height : 576 pixels
Display aspect ratio : 16:9
Frame rate : 25.000 fps
Standard : PAL
Color space : YUV
Chroma subsampling : 4:2:0
Bit depth : 8 bits
Scan type : Progressive
Scan order : Bottom Field First
Compression mode : Lossy
Bits/(Pixel*Frame) : 0.523
Stream size : 927 MiB (91%)

Audio
ID : 189 (0xBD)-128 (0x80)
Format : AC-3
Format/Info : Audio Coding 3
Mode extension : CM (complete main)
Muxing mode : DVD-Video
Duration : 23mn 54s
Bit rate mode : Constant
Bit rate : 448 Kbps
Channel(s) : 6 channels
Channel positions : Front: L C R, Side: L R, LFE
Sampling rate : 48.0 KHz
Bit depth : 16 bits
Compression mode : Lossy
Stream size : 76.6 MiB (7%)

Menu
[00:16:40] One Click encoding activated...
-----------------
[00:16:41] Phase I, PREPARATION started.
- DVD-RB v1.28.2
- AVISYNTH 2.5.8.0
- CCE 1.0.1.9 encoder selected.
- Source: REALNAJA.SKAZKA.2011.DVD-5.DRG
- VTS_04: 3 136 905 sectors.
-- Scanning and writing .D2V & .AVS files
-- Processed 152 949 frames.
-- Building .AVS and .ECL files
- Reduction Level for DVD-5: 69,2%
- Overall Bitrate : 5 478Kbs
- Space for Video : 4 091 174KB
- HIGH/LOW/TYPICAL Bitrates: 5 480/5 476/5 478 Kbs
[00:20:18] Phase I, PREPARATION completed in 4 minutes.
[00:20:18] Phase II ENCODING started
- Creating M2V for VTS_04 segment 0
- Creating M2V for VTS_04 segment 1
- Creating M2V for VTS_04 segment 2
- Creating M2V for VTS_04 segment 3
- Creating M2V for VTS_04 segment 4
- Creating M2V for VTS_04 segment 5
- Creating M2V for VTS_04 segment 6
- Creating M2V for VTS_04 segment 7
- Creating M2V for VTS_04 segment 8
[03:18:11] Phase II ENCODING completed in 178 minutes.
[03:18:11] Phase III, REBUILD started.
- Copying IFO, BUP, and unaltered files...
- Processing VTS_04
- Reading/processing TMAP table...
- Rebuilding seg 0 VOBID 1 CELLID 1
- Rebuilding seg 1 VOBID 1 CELLID 2
- Rebuilding seg 2 VOBID 1 CELLID 3
- Rebuilding seg 3 VOBID 1 CELLID 4
- Rebuilding seg 4 VOBID 1 CELLID 5
- Rebuilding seg 5 VOBID 1 CELLID 6
- Rebuilding seg 6 VOBID 1 CELLID 7
- Rebuilding seg 7 VOBID 1 CELLID 8
- Rebuilding seg 8 VOBID 1 CELLID 9
- Updating NAVPACKS for VOBID_01
- Updated VTS_C_ADT.
- Updated VTS_VOBU_ADMAP.
- Updated IFO: VTS_04_0.IFO
- Updating TMAP table...
- Correcting VTS Sectors...
[03:31:04] Phase III, REBUILD completed in 13 minutes.

Done.
[03:31:04] PREPARE/ENCODE/REBUILD completed in 195 min.

Скриншоты:




   Похожие торренты   Торрент   Размер 
В этой теме нет новых непрочитанных сообщений. Реальная сказка (2011) DVD9 | Лицензия

0 | 2

6.96 ГБ

В этой теме нет новых непрочитанных сообщений. Реальная сказка (2011) DVDRip | Лицензия

6 | 2

2.05 ГБ

В этой теме нет новых непрочитанных сообщений. Реальная сказка (2011) BDRip от HQCLUB | Лицензия

64 | 3

1.45 ГБ

В этой теме нет новых непрочитанных сообщений. Реальная любовь / Love Actually (2003) DVD5 от Youtracker | D | Сжатый

90 | 3

4.37 ГБ

В этой теме нет новых непрочитанных сообщений. Сказка. Есть (2012) DVD5 от Youtracker | сжатый

0 | 3

4.35 ГБ

В этой теме нет новых непрочитанных сообщений. Реальная сказка (2011) Blu-Ray

0 | 3

20.53 ГБ

В этой теме нет новых непрочитанных сообщений. Реальная сказка (2011) BDRip-AVC от R.G. AVI AVC

0 | 6

2.05 ГБ




Вы не можете начинать темы
Вы не можете отвечать на сообщения
Вы не можете редактировать свои сообщения
Вы не можете удалять свои сообщения
Вы не можете добавлять вложения

Перейти:  
Для Мосгорсуда, Роскомнадзора и рекламодателей: mosgorsud-torrent[собачка]yandex.ru
 Вход
ppkBB3cker v.2 © 2008-2014 @ PPK
[ Time : 0.058s | 16 Queries | GZIP : Off ]

Торрент трекер RUTOR.IN, Не можете зайти на rutor.org? Какой новый адрес рутор? Какое зеркало рутор? Не работает rutor.org и зеркала? Тогда наш торрент специально для вас. Rutor.in неофициальное зеркало rutor. В случае если у Вас заблокирован rutor или вдруг Вы не можете на него зайти, то Вы без труда сможете скачать бесплатно и без рекламы последние новинки кино, игр, сериалов и прочего у нас, на Rutor.in. Не нужно использовать прокси, чтобы зайти на рутор, достаточно воспользоваться нашим ресурсом. Все новые фильмы, игры, сериалы, книги и музыка за 2013 и 2014 годы через торрент бесплатно. Скачивайте фильмы в хорошем качестве, игры для пк, xbox, playstation без регистрации. У нас вы найдете новые Зарубежные сериалы и Русские сериалы 2013, 2014, 2015 годов. Оставайтесь с нами, качайте любимые фильмы, игры, сериалы, книги и музыку.