img image001 image001 image001 image001 image001 image001 image001 image001 image001 image001 image001 image001 image001 image001 image001

Planets Sun Sun Sun
Статистика раздачи
Автор: Снежана | Размер: 7.86 ГБ | Добавлен: 24 июл 2013
Раздают: 11    Качают: 4
Скачать торрент
Скачать торрент
Описание торрента

СообщениеДобавлено: 24 июл 2013 

#77

Страна: Россия
Жанр: драма, комедия
Год выпуска: 2011
Продолжительность: 01:29:43
Перевод: Оригинал
Cубтитры: нет
Оригинальная аудиодорожка: Russian
Режиссер: Авдотья Смирнова
В ролях: Ксения Раппопорт, Фёдор Бондарчук, Ирина Розанова, Евгений Муравич, Геннадий Смирнов, Леся Кудряшова, Константин Шелестун, Анна Михалкова
Описание: Петр Дроздов, высокопоставленный чиновник из Москвы, приезжает в провинциальный музей полузабытого классика русской литературы по просьбе губернатора области, который хочет отнять у музея земельные владения и построить на них новую резиденцию. И поначалу Дроздов поддерживает это решение, но знакомство с Машей, молодым литературоведом, работающей в музее заместителем директора, меняет его взгляд не только на эту проблему, но и вообще на всю его жизнь...

Качество: BDRip 1080p
Контейнер: MKV
Видео: H.264, 1920x816, 25 fps, 11.7 Mbps
Аудио: Russian: AC3 5.1, 48 kHz, 640 kbps avg

General
Unique ID : 211563171650316127649357489650582286071 (0x9F2995B19789D557A6073E2CCBB9EEF7)
Complete name : D:2.dnya.2011.BDRip.1080p.mkv
Format : Matroska
File size : 7.86 GiB
Duration : 1h 29mn
Overall bit rate : 12.5 Mbps
Movie name : 2 дня
Encoded date : UTC 2012-01-27 15:33:36
Writing application : mkvmerge v5.1.0 ('And so it goes') built on Nov 28 2011 23:58:28
Writing library : libebml v1.2.3 + libmatroska v1.3.0
Video
ID : 1
Format : AVC
Format/Info : Advanced Video Codec
Format profile : High@L4.1
Format settings, CABAC : Yes
Format settings, ReFrames : 5 frames
Format settings, GOP : M=1, N=6
Codec ID : V_MPEG4/ISO/AVC
Duration : 1h 29mn
Bit rate : 11.7 Mbps
Width : 1 920 pixels
Height : 816 pixels
Display aspect ratio : 2.35:1
Frame rate : 25.000 fps
Color space : YUV
Chroma subsampling : 4:2:0
Bit depth : 8 bits
Scan type : Progressive
Bits/(Pixel*Frame) : 0.298
Stream size : 7.30 GiB (93%)
Title : 2 дня
Writing library : x264 core 116 r2074 2641b9e
Encoding settings : cabac=1 / ref=5 / deblock=1:-3:-3 / analyse=0x3:0x113 / me=umh / subme=11 / psy=1 / psy_rd=1.20:0.00 / mixed_ref=1 / me_range=32 / chroma_me=1 / trellis=2 / 8x8dct=1 / cqm=0 / deadzone=21,11 / fast_pskip=0 / chroma_qp_offset=-2 / threads=12 / sliced_threads=0 / nr=0 / decimate=1 / interlaced=0 / bluray_compat=0 / constrained_intra=0 / bframes=7 / b_pyramid=2 / b_adapt=2 / b_bias=0 / direct=1 / weightb=1 / open_gop=0 / weightp=2 / keyint=250 / keyint_min=23 / scenecut=40 / intra_refresh=0 / rc_lookahead=40 / rc=crf / mbtree=1 / crf=16.5 / qcomp=0.60 / qpmin=10 / qpmax=69 / qpstep=4 / vbv_maxrate=50000 / vbv_bufsize=62500 / crf_max=0.0 / nal_hrd=none / ip_ratio=1.40 / aq=1:1.00
Language : Russian
Audio
ID : 2
Format : AC-3
Format/Info : Audio Coding 3
Mode extension : CM (complete main)
Codec ID : A_AC3
Duration : 1h 29mn
Bit rate mode : Constant
Bit rate : 640 Kbps
Channel(s) : 6 channels
Channel positions : Front: L C R, Side: L R, LFE
Sampling rate : 48.0 KHz
Bit depth : 16 bits
Compression mode : Lossy
Stream size : 411 MiB (5%)
Title : AC3
Language : Russian
Menu
00:00:00.000 : :00:00:00.000
00:00:59.600 : :00:00:59.600
00:10:58.480 : :00:10:58.480
00:24:57.280 : :00:24:57.280
00:39:19.040 : :00:39:19.040
00:52:57.480 : :00:52:57.480
01:05:32.360 : :01:05:32.360
01:16:31.120 : :01:16:31.120
01:24:50.560 : :01:24:50.560



   Похожие торренты   Торрент   Размер 
В этой теме нет новых непрочитанных сообщений. Игра престолов / Game of Thrones [S01-03] (2011-2013) BDRip 1080p, HDTVRip-AVC 1080p

35 | 23

65.81 ГБ

В этой теме нет новых непрочитанных сообщений. VA - Hard Bass 2011: The Live Registration (2011) BDRip 1080p

1 | 1

7.94 ГБ

В этой теме нет новых непрочитанных сообщений. Kylie Minogue - Aphrodite Les Folies Tour 2011 - Live in London 3D (2011) BDRip 1080p | 3D-Video

8 | 3

18.41 ГБ

В этой теме нет новых непрочитанных сообщений. 2 дня (2011) BDRip 1080p

13 | 2

4.37 ГБ

В этой теме нет новых непрочитанных сообщений. Дом (2011) BDRip 1080p

108 | 5

4.37 ГБ

В этой теме нет новых непрочитанных сообщений. Рио / Rio (2011) BDRip 1080p

405 | 12

4.37 ГБ

В этой теме нет новых непрочитанных сообщений. Икс / X (2011) BDRip 1080p

0 | 1

8.2 ГБ




Вы не можете начинать темы
Вы не можете отвечать на сообщения
Вы не можете редактировать свои сообщения
Вы не можете удалять свои сообщения
Вы не можете добавлять вложения

Перейти:  
Для Мосгорсуда, Роскомнадзора и рекламодателей: mosgorsud-torrent[собачка]yandex.ru
 Вход
ppkBB3cker v.2 © 2008-2014 @ PPK
[ Time : 0.026s | 14 Queries | GZIP : Off ]

Торрент трекер RUTOR.IN, Не можете зайти на rutor.org? Какой новый адрес рутор? Какое зеркало рутор? Не работает rutor.org и зеркала? Тогда наш торрент специально для вас. Rutor.in неофициальное зеркало rutor. В случае если у Вас заблокирован rutor или вдруг Вы не можете на него зайти, то Вы без труда сможете скачать бесплатно и без рекламы последние новинки кино, игр, сериалов и прочего у нас, на Rutor.in. Не нужно использовать прокси, чтобы зайти на рутор, достаточно воспользоваться нашим ресурсом. Все новые фильмы, игры, сериалы, книги и музыка за 2013 и 2014 годы через торрент бесплатно. Скачивайте фильмы в хорошем качестве, игры для пк, xbox, playstation без регистрации. У нас вы найдете новые Зарубежные сериалы и Русские сериалы 2013, 2014, 2015 годов. Оставайтесь с нами, качайте любимые фильмы, игры, сериалы, книги и музыку.