img image001 image001 image001 image001 image001 image001 image001 image001 image001 image001 image001 image001 image001 image001 image001

Planets Sun Sun Sun
Статистика раздачи
Автор: Снежана | Размер: 1.09 ГБ | Добавлен: 24 июл 2013
Раздают: 107    Качают: 9
Скачать торрент
Скачать торрент
Описание торрента

СообщениеДобавлено: 24 июл 2013 

#77

Информация о фильме
Название: Кащей Бессмертный
Год выхода: 1944
Жанр: Сказка, детский, семейный, приключения
Режиссер: Александр Роу
В ролях: Александр Ширшов, Георгий Милляр, Сергей Столяров, Галина Григорьева, Сергей Филиппов, Эммануил Геллер, Иван Рыжов, Сергей Троицкий, Иван Бобров и другие.

О фильме:
Эпическая сказка, снятая в годы Второй Мировой войны.
Русский богатырь Никита Кожемяка и его верный друг Булат Балагур спасают землю русскую от вражьих полчищ Кащея Бессмертного и освобождают красавицу Марью Моревну, возлюбленную Никиты из тлена Кащея...



Выпущено: Союздетфильм, СССР
Продолжительность: 01:03:30
Перевод: Не требуется

Файл
Качество: DVDRip
Формат: AVI
Видео: : Xvid 688x528 (1.303:1) 25.00fps 2265kbps
Аудио: Dolby AC3 48000Hz stereo 2сh 192kbps

General
Complete name : C:UserssamsungVideosКащей Бессмертный DVDRip 1944.avi
Format : AVI
Format/Info : Audio Video Interleave
File size : 1.09 GiB
Duration : 1h 3mn
Overall bit rate : 2 466 Kbps
Writing application : VirtualDubMod 1.5.10.2 (build 2540/release)
Writing library : VirtualDubMod build 2540/release

Video
ID : 0
Format : MPEG-4 Visual
Format profile : Advanced Simple@L5
Format settings, BVOP : Yes
Format settings, QPel : No
Format settings, GMC : No warppoints
Format settings, Matrix : Default (H.263)
Codec ID : XVID
Codec ID/Hint : XviD
Duration : 1h 3mn
Bit rate : 2 265 Kbps
Width : 688 pixels
Height : 528 pixels
Display aspect ratio : 4:3
Frame rate : 25.000 fps
Color space : YUV
Chroma subsampling : 4:2:0
Bit depth : 8 bits
Scan type : Progressive
Bits/(Pixel*Frame) : 0.249
Stream size : 1.00 GiB (92%)
Writing library : XviD 1.2.1 (UTC 2008-12-04)

Audio
ID : 1
Format : AC-3
Format/Info : Audio Coding 3
Mode extension : CM (complete main)
Codec ID : 2000
Duration : 1h 3mn
Bit rate mode : Constant
Bit rate : 192 Kbps
Channel(s) : 2 channels
Channel positions : Front: L R
Sampling rate : 48.0 KHz
Bit depth : 16 bits
Stream size : 87.2 MiB (8%)
Alignment : Aligned on interleaves
Interleave, duration : 40 ms (1.00 video frame)
Interleave, preload duration : 512 ms











Скриншоты:



Спасибо большое Vova468!



   Похожие торренты   Торрент   Размер 
В этой теме нет новых непрочитанных сообщений. Кащей Бессмертный (1944) DVDRip

35 | 13

700.38 МБ

В этой теме нет новых непрочитанных сообщений. Кащей Бессмертный (1944) DVDRip-AVC

96 | 12

1.58 ГБ

В этой теме нет новых непрочитанных сообщений. Кащей Бессмертный (1944) DVDRip-AVC от New-Team

96 | 10

1.09 ГБ

В этой теме нет новых непрочитанных сообщений. Кащей Бессмертный (1944) DVDRip от New-Team

7 | 7

743.91 МБ

В этой теме нет новых непрочитанных сообщений. Кащей Бессмертный (1944) DVDRip от New-Team

33 | 4

1.09 ГБ

В этой теме нет новых непрочитанных сообщений. Панк-опера группы Сектор Газа Кащей Бессмертный (2010) BDRip AVC - Generalfilm

50 | 11

699.12 МБ

В этой теме нет новых непрочитанных сообщений. Тали-Ихантала 1944 / Tali-Ihantala 1944 (2007) DVDRip от brazolargo

30 | 5

1.37 ГБ




Вы не можете начинать темы
Вы не можете отвечать на сообщения
Вы не можете редактировать свои сообщения
Вы не можете удалять свои сообщения
Вы не можете добавлять вложения

Перейти:  
Для Мосгорсуда, Роскомнадзора и рекламодателей: mosgorsud-torrent[собачка]yandex.ru
 Вход
ppkBB3cker v.2 © 2008-2014 @ PPK
[ Time : 0.040s | 15 Queries | GZIP : Off ]

cron