img image001 image001 image001 image001 image001 image001 image001 image001 image001 image001 image001 image001 image001 image001 image001

Planets Sun Sun Sun
Статистика раздачи
Автор: Снежана | Размер: 700.46 МБ | Добавлен: 24 июл 2013
Раздают: 66    Качают: 9
Скачать торрент
Скачать торрент
Описание торрента

СообщениеДобавлено: 24 июл 2013 

#77

Верьте мне, люди

Страна: СССР
Жанр: Драма
Год выпуска: 1964
Продолжительность: 01:45:10
Перевод: Не требуется
Субтитры: Нет

Режиссёр: Илья Гурин, Владимир Беренштейн, Леонид Луков
В ролях: Кирилл Лавров, Владимир Самойлов, Ирина Бунина, Станислав Чекан, Всеволод Кузнецов, Сергей Плотников, Валентина Беляева, Евгений Евстигнеев, Николай Парфенов, Иван Рыжов, Катя Салимжанова, Владимир Атлантов, Аркадий Трусов, Александр Орлов, Оксана Левинсон

Описание фильма: По мотивам романа Юрия Германа "Один год".
1956 год. По нелепому стечению обстоятельств Алексей Лапин совершает побег из лагеря за месяц до своего освобождения. Случайность спасает героя от розыска. Приехав в Ленинград, Алексей влюбляется в дочь рабочего, у которого снимает комнату, — и решает начать честную жизнь.



Качество: DVDRip
Формат: AVI
Видео: 640x480 (1.33:1), 25 fps, DivX Codec 5.x or 6.x ~793 kbps avg
Аудио: MP3 48 kHz, MPEG Layer 3, 2 ch, ~128.00 kbps avg











Format : AVI
Format/Info : Audio Video Interleave
File size : 700 MiB
Duration : 1h 45mn
Overall bit rate : 931 Kbps
Writing application : VirtualDubModRus 1.5.10.2 (build 2542/release)
Writing library : VirtualDubMod build 2542/release

Video
ID : 0
Format : MPEG-4 Visual
Format settings, BVOP : 1
Format settings, QPel : No
Format settings, GMC : No warppoints
Format settings, Matrix : Default (H.263)
Muxing mode : Packed bitstream
Codec ID : DX50
Codec ID/Hint : DivX 5
Duration : 1h 45mn
Bit rate : 794 Kbps
Width : 640 pixels
Height : 480 pixels
Display aspect ratio : 4:3
Frame rate : 25.000 fps
Color space : YUV
Chroma subsampling : 4:2:0
Bit depth : 8 bits
Scan type : Progressive
Compression mode : Lossy
Bits/(Pixel*Frame) : 0.103
Stream size : 597 MiB (85%)
Writing library : DivX 6.8.3-6.8.4 (UTC 2008-06-07)

Audio
ID : 1
Format : MPEG Audio
Format version : Version 1
Format profile : Layer 3
Codec ID : 55
Codec ID/Hint : MP3
Duration : 1h 45mn
Bit rate mode : Constant
Bit rate : 128 Kbps
Channel(s) : 2 channels
Sampling rate : 48.0 KHz
Compression mode : Lossy
Stream size : 96.3 MiB (14%)
Alignment : Aligned on interleaves
Interleave, duration : 40 ms (1.00 video frame)
Interleave, preload duration : 504 ms
Writing library : LAME3.97
Encoding settings : -m s -V 4 -q 2 -b 128

Релиз от: Slava47




   Похожие торренты   Торрент   Размер 
В этой теме нет новых непрочитанных сообщений. Живет такой парень / Хотите-верьте, хотите-нет... (1964) DVD5

0 | 4

4.32 ГБ

В этой теме нет новых непрочитанных сообщений. Первые люди на Луне / First Men In The Moon (1964) DVDRip - Generalfilm

23 | 3

1.46 ГБ

В этой теме нет новых непрочитанных сообщений. Первые люди на Луне / First Men In The Moon (1964) BDRip 1080p

53 | 16

13.84 ГБ

В этой теме нет новых непрочитанных сообщений. Сборник избранных рассказов из журналов Юность 1964 года (1964) FB2

208 | 19

19.22 МБ

В этой теме нет новых непрочитанных сообщений. Замужняя женщина / Une femme mariée: Suite de fragments d'un film tourné en 1964 (1964) BDRip | A, Sub

273 | 50

1.6 ГБ

В этой теме нет новых непрочитанных сообщений. Настоящие люди / Реальные люди / Äkta människor [S01] (2012) WEB-DL 720p | Baibako

36 | 13

11.32 ГБ

В этой теме нет новых непрочитанных сообщений. Настоящие люди / Реальные люди / Äkta människor / Real Humans [S01] (2012) WEBRip | Baibako

36 | 19

7.76 ГБ




Вы не можете начинать темы
Вы не можете отвечать на сообщения
Вы не можете редактировать свои сообщения
Вы не можете удалять свои сообщения
Вы не можете добавлять вложения

Перейти:  
Для Мосгорсуда, Роскомнадзора и рекламодателей: mosgorsud-torrent[собачка]yandex.ru
 Вход
ppkBB3cker v.2 © 2008-2014 @ PPK
[ Time : 0.041s | 15 Queries | GZIP : Off ]

Торрент трекер RUTOR.IN, Не можете зайти на rutor.org? Какой новый адрес рутор? Какое зеркало рутор? Не работает rutor.org и зеркала? Тогда наш торрент специально для вас. Rutor.in неофициальное зеркало rutor. В случае если у Вас заблокирован rutor или вдруг Вы не можете на него зайти, то Вы без труда сможете скачать бесплатно и без рекламы последние новинки кино, игр, сериалов и прочего у нас, на Rutor.in. Не нужно использовать прокси, чтобы зайти на рутор, достаточно воспользоваться нашим ресурсом. Все новые фильмы, игры, сериалы, книги и музыка за 2013 и 2014 годы через торрент бесплатно. Скачивайте фильмы в хорошем качестве, игры для пк, xbox, playstation без регистрации. У нас вы найдете новые Зарубежные сериалы и Русские сериалы 2013, 2014, 2015 годов. Оставайтесь с нами, качайте любимые фильмы, игры, сериалы, книги и музыку.