img image001 image001 image001 image001 image001 image001 image001 image001 image001 image001 image001 image001 image001 image001 image001

Planets Sun Sun Sun
Статистика раздачи
Автор: Снежана | Размер: 4.37 ГБ | Добавлен: 24 июл 2013
Раздают: 523    Качают: 19
Скачать торрент
Скачать торрент
Описание торрента

СообщениеДобавлено: 24 июл 2013 

#77

Информация о фильме
Название: О чём ещё говорят мужчины
Год выхода: 2011
Жанр: мелодрама, комедия
Режиссер: Дмитрий Дьяченко
В ролях: Леонид Барац, Александр Демидов, Камиль Ларин, Ростислав Хаит, Алёна Бабенко, Елена Подкаминская, Екатерина Вилкова, Виталий Хаев, Анатолий Белый, Денис Шведов

О фильме: Леша, Слава и Камиль в трудную минуту приходят на помощь своему другу Саше. Накануне Нового года он умудрился вступить в конфликт с женой сотрудника силовых структур, и теперь четверо друзей заперлись в офисе рекламного агентства, которым руководит Саша, пытаясь придумать выход из сложившейся ситуации и коротая время в мужских разговорах.



Выпущено: Кинокомпания "Квадрат"
Продолжительность: 01:38:28
Перевод: Оригинал

Файл
Кодек: x264
Качество: BDRip (источник: Blu-ray Disc)
Видео: 1920x816 (2,35:1), 24 fps, 5906 kbps
Звук: 48 kHz, AC-3, 6 ch, 448 kbps
Скачать: сэмпл

Скриншоты

Общее
Уникальный идентификатор : 215522643162350487940604837855507093945 (0xA22426B61740AD9EBD525F8807C599B9)
Полное имя : O.chyom.eshchyo.govoryat.muzhchiny.2011.BDRip.1080p.Rus.mkv
Формат : Matroska
Версия формата : Version 2
Размер файла : 4,37 Гбайт
Продолжительность : 1 ч. 38 м.
Общий поток : 6357 Кбит/сек
Название фильма : О чём ещё говорят мужчины (2011)
Дата кодирования : UTC 2012-02-08 13:07:11
Программа кодирования : mkvmerge v4.0.0 ('The Stars were mine') сборка от Jun 6 2010 16:18:42
Библиотека кодирования : libebml v1.0.0 + libmatroska v1.0.0

Видео
Идентификатор : 1
Формат : AVC
Формат/Информация : Advanced Video Codec
Профиль формата : High@L4.1
Параметр CABAC формата : Да
Параметр ReFrames формата : 5 кадров
Идентификатор кодека : V_MPEG4/ISO/AVC
Продолжительность : 1 ч. 38 м.
Битрейт : 5906 Кбит/сек
Ширина : 1920 пикселей
Высота : 816 пикселей
Соотношение сторон : 2,35:1
Частота кадров : 24,000 кадра/сек
Цветовое пространство : YUV
Субдискретизация насыщенности : 4:2:0
Битовая глубина : 8 бит
Тип развёртки : Прогрессивная
Бит/(Пиксели*Кадры) : 0.157
Размер потока : 3,98 Гбайт (91%)
Заголовок : Release by AlexKa
Библиотека кодирования : x264 core 120 r2164 da19765
Настройки программы : cabac=1 / ref=5 / deblock=1:0:0 / analyse=0x3:0x133 / me=umh / subme=10 / psy=1 / psy_rd=1.00:0.10 / mixed_ref=1 / me_range=32 / chroma_me=1 / trellis=2 / 8x8dct=1 / cqm=0 / deadzone=21,11 / fast_pskip=0 / chroma_qp_offset=-3 / threads=12 / sliced_threads=0 / nr=0 / decimate=1 / interlaced=0 / bluray_compat=0 / constrained_intra=0 / bframes=5 / b_pyramid=2 / b_adapt=2 / b_bias=0 / direct=3 / weightb=1 / open_gop=0 / weightp=2 / keyint=240 / keyint_min=24 / scenecut=40 / intra_refresh=0 / rc_lookahead=60 / rc=2pass / mbtree=1 / bitrate=5906 / ratetol=1.0 / qcomp=0.60 / qpmin=0 / qpmax=69 / qpstep=4 / cplxblur=20.0 / qblur=0.5 / ip_ratio=1.40 / aq=1:1.00
Язык : Russian

Аудио
Идентификатор : 2
Формат : AC-3
Формат/Информация : Audio Coding 3
Расширение режима : CM (complete main)
Идентификатор кодека : A_AC3
Продолжительность : 1 ч. 38 м.
Вид битрейта : Постоянный
Битрейт : 448 Кбит/сек
Каналы : 6 каналов
Расположение каналов : Front: L C R, Side: L R, LFE
Частота : 48,0 КГц
Битовая глубина : 16 бит
Метод сжатия : С потерями
Размер потока : 316 Мбайт (7%)
Язык : Russian

Меню
00:00:00.000 : :Chapter 01
00:09:24.583 : :Chapter 02
00:18:33.708 : :Chapter 03
00:30:38.666 : :Chapter 04
00:52:20.041 : :Chapter 05
01:03:26.291 : :Chapter 06
01:14:54.916 : :Chapter 07
01:25:16.916 : :Chapter 08



   Похожие торренты   Торрент   Размер 
В этой теме нет новых непрочитанных сообщений. О чём ещё говорят мужчины (2011) BDRip 1080p | Лицензия

102 | 19

7.86 ГБ

В этой теме нет новых непрочитанных сообщений. О чём говорят мужчины (2010) BDRip 1080p

2382 | 72

4.37 ГБ

В этой теме нет новых непрочитанных сообщений. О чём говорят мужчины (2010) BDRip 1080p от FreeHD

278 | 31

7.95 ГБ

В этой теме нет новых непрочитанных сообщений. О чём ещё говорят мужчины (2011) BDRip от HELLYWOOD

71 | 9

1.45 ГБ

В этой теме нет новых непрочитанных сообщений. О чём ещё говорят мужчины (2011) BDRip-AVC от R.G. AVI | AVC | Лицензия

6 | 3

1.46 ГБ

В этой теме нет новых непрочитанных сообщений. О чём ещё говорят мужчины (2011) BDRip от HQ-ViDEO

46 | 8

1.45 ГБ

В этой теме нет новых непрочитанных сообщений. О чём ещё говорят мужчины (2011) BDRip от HQCLUB

697 | 10

1.45 ГБ




Вы не можете начинать темы
Вы не можете отвечать на сообщения
Вы не можете редактировать свои сообщения
Вы не можете удалять свои сообщения
Вы не можете добавлять вложения

Перейти:  
Для Мосгорсуда, Роскомнадзора и рекламодателей: mosgorsud-torrent[собачка]yandex.ru
 Вход
ppkBB3cker v.2 © 2008-2014 @ PPK
[ Time : 0.019s | 13 Queries | GZIP : Off ]
CGP output time : 0.071s | 5 Queries | GZIP : Off

Торрент трекер RUTOR.IN, Не можете зайти на rutor.org? Какой новый адрес рутор? Какое зеркало рутор? Не работает rutor.org и зеркала? Тогда наш торрент специально для вас. Rutor.in неофициальное зеркало rutor. В случае если у Вас заблокирован rutor или вдруг Вы не можете на него зайти, то Вы без труда сможете скачать бесплатно и без рекламы последние новинки кино, игр, сериалов и прочего у нас, на Rutor.in. Не нужно использовать прокси, чтобы зайти на рутор, достаточно воспользоваться нашим ресурсом. Все новые фильмы, игры, сериалы, книги и музыка за 2013 и 2014 годы через торрент бесплатно. Скачивайте фильмы в хорошем качестве, игры для пк, xbox, playstation без регистрации. У нас вы найдете новые Зарубежные сериалы и Русские сериалы 2013, 2014, 2015 годов. Оставайтесь с нами, качайте любимые фильмы, игры, сериалы, книги и музыку.