img image001 image001 image001 image001 image001 image001 image001 image001 image001 image001 image001 image001 image001 image001 image001

Planets Sun Sun Sun
Статистика раздачи
Автор: Снежана | Размер: 2.56 ГБ | Добавлен: 24 июл 2013
Раздают: 18    Качают: 2
Скачать торрент
Скачать торрент
Описание торрента

СообщениеДобавлено: 24 июл 2013 

#77

Бой с тенью 3D: Последний раунд (2011) 3D BDRip 720p от NOLIMITS-TEAM | Горизонтальная стереопара


Информация о фильме
Название: Бой с тенью 3D: Последний раунд
Год выхода: 2011
Жанр: Боевик, драма, криминал, приключения
Режиссер: Алексей Сидоров
В ролях: Денис Никифоров, Андрей Панин, Елена Панова, Бату Хасиков, Михаил Горевой, Дмитрий Шевченко, Ольга Дибцева, Софья Мицкевич, Сергей Рябых, Шакрит Ямнарм

Сюжет фильма: Боксер-чемпион Артем Колчин достиг всех мыслимых вершин и стал национальным героем. На ринг он больше не выходит, предпочитая тренерскую работу и бурную светскую жизнь с постоянным мельканием на ТВ, тусовками и интрижками. А дома его по утрам встречают дочка и жена Вика, которая больше не узнает в нем того Артема, которого она когда-то полюбила...Внешне благополучному существованию Колчина приходит конец, когда его подопечного чуть не убивает в бою знаменитый Куэрте. Артем подозревает, что тот использует некую запрещенную технику. За доказательствами ему приходится отправиться в Гонконг, где его ждет старый знакомый Вагит Валиев: он знает о Куэрте то, чего не знает больше ни один человек. Чтобы победить, Артему придется снова выйти на ринг.

«Последний раунд решает всё»

Выпущено: Россия
Продолжительность: 02:06:36
Перевод: Оригинал
Субтитры: Отсутствуют

Файл

Формат 3D: Half SideBySide | Горизонтальная стереопара
Качество: BDRip 720p (исходник Blu-ray)
Видео: 1280x528, 2509 Кбит/сек, 23.976 кадр/сек, AVC, x264, 2.40:1, 0.155 Бит/(Пиксели*Кадры)
Аудио: AC-3, 384 Кбит/сек, 6 канала(ов), 48,0 КГц
Чаптеры: Есть
Размер: 2.56 Гб





Релиз Группа | Автор Рипа:
Бюджет Фильма: $5 000 000
Кассовые сборы: $13 645 556






Format : Matroska
Format version : Version 2
File size : 2.56 GiB
Duration : 2h 6mn
Overall bit rate : 2 893 Kbps
Movie name : Rip by NigAndr (NOLIMITS-TEAM.RU)
Encoded date : UTC 2012-02-10 19:50:05
Writing application : mkvmerge v5.2.1 ('A Far Off Place') built on Jan 2 2012 23:21:10
Writing library : libebml v1.2.3 + libmatroska v1.3.0

Video
ID : 1
Format : AVC
Format/Info : Advanced Video Codec
Format profile : High@L4.1
Format settings, CABAC : Yes
Format settings, ReFrames : 9 frames
Codec ID : V_MPEG4/ISO/AVC
Duration : 2h 6mn
Bit rate : 2 509 Kbps
Width : 1 280 pixels
Height : 528 pixels
Display aspect ratio : 2.40:1
Original display aspect ratio : 2.40:1
Frame rate : 23.976 fps
Color space : YUV
Chroma subsampling : 4:2:0
Bit depth : 8 bits
Scan type : Progressive
Bits/(Pixel*Frame) : 0.155
Stream size : 2.17 GiB (85%)
Title : Бой с тенью 3D: Последний раунд (2011) 3D BDRip 720p от NOLIMITS-TEAM
Writing library : x264 core 120 r2164 da19765
Encoding settings : cabac=1 / ref=9 / deblock=1:-3:-2 / analyse=0x3:0x133 / me=umh / subme=10 / psy=1 / psy_rd=1.00:0.15 / mixed_ref=1 / me_range=32 / chroma_me=1 / trellis=2 / 8x8dct=1 / cqm=0 / deadzone=21,11 / fast_pskip=0 / chroma_qp_offset=-3 / threads=6 / sliced_threads=0 / slices=4 / nr=0 / decimate=0 / interlaced=0 / bluray_compat=0 / constrained_intra=0 / bframes=5 / b_pyramid=2 / b_adapt=2 / b_bias=0 / direct=3 / weightb=1 / open_gop=0 / weightp=2 / keyint=240 / keyint_min=24 / scenecut=40 / intra_refresh=0 / rc_lookahead=60 / rc=2pass / mbtree=1 / bitrate=2509 / ratetol=2.0 / qcomp=0.60 / qpmin=0 / qpmax=51 / qpstep=4 / cplxblur=20.0 / qblur=0.5 / ip_ratio=1.40 / aq=2:1.00
Language : English
Default : Yes
Forced : No

Audio
ID : 2
Format : AC-3
Format/Info : Audio Coding 3
Mode extension : CM (complete main)
Codec ID : A_AC3
Duration : 2h 6mn
Bit rate mode : Constant
Bit rate : 384 Kbps
Channel(s) : 6 channels
Channel positions : Front: L C R, Side: L R, LFE
Sampling rate : 48.0 KHz
Bit depth : 16 bits
Compression mode : Lossy
Stream size : 348 MiB (13%)
Title : Оригинал
Language : Russian
Default : Yes
Forced : No

Menu
00:00:00.000 : en:00:00:00.000
00:08:26.172 : en:00:08:26.172
00:15:19.293 : en:00:15:19.293
00:21:52.394 : en:00:21:52.394
00:29:31.853 : en:00:29:31.853
00:38:35.146 : en:00:38:35.146
00:46:58.357 : en:00:46:58.357
00:55:38.794 : en:00:55:38.794
01:05:58.371 : en:01:05:58.371
01:14:37.556 : en:01:14:37.556
01:21:14.119 : en:01:21:14.119
01:31:43.456 : en:01:31:43.456
01:39:16.701 : en:01:39:16.701
01:46:14.451 : en:01:46:14.451
01:53:16.999 : en:01:53:16.999
02:01:41.127 : en:02:01:41.127

Уважаемые пользователи, не нужно заказывать фильмы в комментариях. Хотите заказать релиз - воспользуйтесь Столом Заказов на самом сайте Релиз-Группы. Проводиться набор в RG NoLimits-team и RG NoLimits-team Games.



   Похожие торренты   Торрент   Размер 
В этой теме нет новых непрочитанных сообщений. Бой с тенью 3D: Последний раунд (2011) BDRip 1080p от NOLIMITS-TEAM | 3D-Video

16 | 2

4.37 ГБ

В этой теме нет новых непрочитанных сообщений. Бой с тенью 3D: Последний раунд (2011) BDRip от HQ-ViDEO

7 | 2

2.18 ГБ

В этой теме нет новых непрочитанных сообщений. Бой с тенью 3D: Последний раунд (2011) BDRip | 3D-video (Анаглиф)

4 | 5

4.58 ГБ

В этой теме нет новых непрочитанных сообщений. Бой с тенью 3D: Последний раунд (2011) BDRip 1080p | 3D-Video

2 | 2

13.27 ГБ

В этой теме нет новых непрочитанных сообщений. Бой с тенью 3D: Последний раунд (2011) BDRip 720p | Лицензия

16 | 5

5.87 ГБ

В этой теме нет новых непрочитанных сообщений. Бой с тенью 3D: Последний раунд (2011) BDRip-AVC

3 | 2

2.17 ГБ

В этой теме нет новых непрочитанных сообщений. Бой с тенью 3D: Последний раунд (2011) BDRip 1080p

8 | 3

11.96 ГБ




Вы не можете начинать темы
Вы не можете отвечать на сообщения
Вы не можете редактировать свои сообщения
Вы не можете удалять свои сообщения
Вы не можете добавлять вложения

Перейти:  
Для Мосгорсуда, Роскомнадзора и рекламодателей: mosgorsud-torrent[собачка]yandex.ru
 Вход
ppkBB3cker v.2 © 2008-2014 @ PPK
[ Time : 0.018s | 14 Queries | GZIP : On ]

Торрент трекер RUTOR.IN, Не можете зайти на rutor.org? Какой новый адрес рутор? Какое зеркало рутор? Не работает rutor.org и зеркала? Тогда наш торрент специально для вас. Rutor.in неофициальное зеркало rutor. В случае если у Вас заблокирован rutor или вдруг Вы не можете на него зайти, то Вы без труда сможете скачать бесплатно и без рекламы последние новинки кино, игр, сериалов и прочего у нас, на Rutor.in. Не нужно использовать прокси, чтобы зайти на рутор, достаточно воспользоваться нашим ресурсом. Все новые фильмы, игры, сериалы, книги и музыка за 2013 и 2014 годы через торрент бесплатно. Скачивайте фильмы в хорошем качестве, игры для пк, xbox, playstation без регистрации. У нас вы найдете новые Зарубежные сериалы и Русские сериалы 2013, 2014, 2015 годов. Оставайтесь с нами, качайте любимые фильмы, игры, сериалы, книги и музыку.