img image001 image001 image001 image001 image001 image001 image001 image001 image001 image001 image001 image001 image001 image001 image001

Planets Sun Sun Sun
Статистика раздачи
Автор: Снежана | Размер: 4.36 ГБ | Добавлен: 24 июл 2013
Раздают: 59    Качают: 19
Скачать торрент
Скачать торрент
Описание торрента

СообщениеДобавлено: 24 июл 2013 

#77

Информация о фильме
Название: Кандагар
Год выхода: 2010
Жанр: Боевик, драма
Режиссер: Андрей Кавун
В ролях: Александр Балуев, Владимир Машков, Андрей Панин, Александр Голубев, Богдан Бенюк, Максим Клянов, Юрий Беляев, Александр Робак, Артем Мазунов, Рамиль Сабитов.

О фильме:
1995 год. Афганистан. Российский грузовой самолет принудительно посажен на аэродроме в столице исламского терроризма — городе Кандагаре. Пятеро российских лётчиков захвачены в плен фанатиками-талибами. Им предстоит прожить 378 дней в аду.Как не предать Родину, если за это тебе обещают свободу? Как не отказаться от своей веры, если за это тебе гарантируют жизнь? Как остаться собой — если за это тебе грозит смерть? Ответ один — бежать...На аэродроме их ждёт самолёт. На взлетной полосе — минное поле, истребители — в воздухе, стингеры — на земле. Но у них нет другого шанса вернуться домой...



Страна: Россия
Продолжительность: 01:43:12ъ
Перевод: Оригинал

Файл
Кодек: H264
Качество: BDRip 1080p
Видео: 1920x816, 5608 Kbps, 23.976 fps
Звук: 48 kHz, AC3, 6c, 448 kbps
Субтитры: Нет

Семпл



Общее
Формат : Matroska
Версия формата : Version 2
Размер файла : 4,36 Гбайт
Продолжительность : 1 ч. 43 м.
Общий поток : 6048 Кбит/сек
Название фильма : Кандагар (2010) BDRip 1080p от Dimok
Дата кодирования : UTC 2012-02-12 07:53:10
Программа кодирования : mkvmerge v5.2.1 ('A Far Off Place') built on Jan 2 2012 23:21:10
Библиотека кодирования : libebml v1.2.3 + libmatroska v1.3.0

Видео
Идентификатор : 1
Формат : AVC
Формат/Информация : Advanced Video Codec
Профиль формата : High@L4.1
Параметр CABAC формата : Да
Параметр ReFrames формата : 5 кадров
Идентификатор кодека : V_MPEG4/ISO/AVC
Продолжительность : 1 ч. 43 м.
Битрейт : 5608 Кбит/сек
Ширина : 1920 пикселей
Высота : 816 пикселей
Соотношение сторон : 2,35:1
Частота кадров : 23,976 кадра/сек
Цветовое пространство : YUV
Субдискретизация насыщенности : 4:2:0
Битовая глубина : 8 бит
Тип развёртки : Прогрессивная
Бит/(Пиксели*Кадры) : 0.149
Размер потока : 3,95 Гбайт (91%)
Библиотека кодирования : x264 core 92 r1510 33d382a
Настройки программы : cabac=1 / ref=5 / deblock=1:0:0 / analyse=0x3:0x133 / me=umh / subme=10 / psy=1 / psy_rd=1.00:0.10 / mixed_ref=1 / me_range=32 / chroma_me=1 / trellis=2 / 8x8dct=1 / cqm=0 / deadzone=21,11 / fast_pskip=0 / chroma_qp_offset=-3 / threads=6 / sliced_threads=0 / nr=0 / decimate=1 / interlaced=0 / constrained_intra=0 / bframes=6 / b_pyramid=2 / b_adapt=2 / b_bias=0 / direct=3 / wpredb=1 / wpredp=2 / keyint=240 / keyint_min=24 / scenecut=40 / intra_refresh=0 / rc_lookahead=65 / rc=2pass / mbtree=1 / bitrate=5608 / ratetol=1.0 / qcomp=0.60 / qpmin=10 / qpmax=51 / qpstep=4 / cplxblur=20.0 / qblur=0.5 / ip_ratio=1.40 / aq=1:1.00
Язык : Russian

Аудио
Идентификатор : 2
Формат : AC-3
Формат/Информация : Audio Coding 3
Расширение режима : CM (complete main)
Идентификатор кодека : A_AC3
Продолжительность : 1 ч. 43 м.
Вид битрейта : Постоянный
Битрейт : 448 Кбит/сек
Каналы : 6 каналов
Расположение каналов : Front: L C R, Side: L R, LFE
Частота : 48,0 КГц
Битовая глубина : 16 бит
Метод сжатия : С потерями
Размер потока : 331 Мбайт (7%)
Заголовок : Оригинал
Язык : Russian



   Похожие торренты   Торрент   Размер 
В этой теме нет новых непрочитанных сообщений. Кандагар (2010) BDRip-AVC от RP4 CHG

0 | 2

701.24 МБ

В этой теме нет новых непрочитанных сообщений. Кандагар (2010) BDRip от HELLYWOOD

345 | 12

1.46 ГБ

В этой теме нет новых непрочитанных сообщений. Кандагар (2010) BDRip от HQCLUB

4 | 5

1.9 ГБ

В этой теме нет новых непрочитанных сообщений. Кандагар (2010) BDRip от HQCLUB

31 | 3

1.46 ГБ

В этой теме нет новых непрочитанных сообщений. Кандагар (2010) BDRip 720p от NOLIMITS-TEAM

0 | 5

2.18 ГБ

В этой теме нет новых непрочитанных сообщений. Кандагар (2010) DVDRip

17 | 5

700.29 МБ

В этой теме нет новых непрочитанных сообщений. Кандагар (2010) DVD9

1 | 4

5.78 ГБ




Вы не можете начинать темы
Вы не можете отвечать на сообщения
Вы не можете редактировать свои сообщения
Вы не можете удалять свои сообщения
Вы не можете добавлять вложения

Перейти:  
Для Мосгорсуда, Роскомнадзора и рекламодателей: mosgorsud-torrent[собачка]yandex.ru
 Вход
ppkBB3cker v.2 © 2008-2014 @ PPK
[ Time : 0.054s | 15 Queries | GZIP : Off ]

Торрент трекер RUTOR.IN, Не можете зайти на rutor.org? Какой новый адрес рутор? Какое зеркало рутор? Не работает rutor.org и зеркала? Тогда наш торрент специально для вас. Rutor.in неофициальное зеркало rutor. В случае если у Вас заблокирован rutor или вдруг Вы не можете на него зайти, то Вы без труда сможете скачать бесплатно и без рекламы последние новинки кино, игр, сериалов и прочего у нас, на Rutor.in. Не нужно использовать прокси, чтобы зайти на рутор, достаточно воспользоваться нашим ресурсом. Все новые фильмы, игры, сериалы, книги и музыка за 2013 и 2014 годы через торрент бесплатно. Скачивайте фильмы в хорошем качестве, игры для пк, xbox, playstation без регистрации. У нас вы найдете новые Зарубежные сериалы и Русские сериалы 2013, 2014, 2015 годов. Оставайтесь с нами, качайте любимые фильмы, игры, сериалы, книги и музыку.
cron