img image001 image001 image001 image001 image001 image001 image001 image001 image001 image001 image001 image001 image001 image001 image001

Planets Sun Sun Sun
Статистика раздачи
Автор: Снежана | Размер: 1.37 ГБ | Добавлен: 24 июл 2013
Раздают: 64    Качают: 10
Скачать торрент
Скачать торрент
Описание торрента

СообщениеДобавлено: 24 июл 2013 

#77

Жанр: психологическая драма
Страна: СССР
Режиссер: Эльдор Уразбаев
В ролях: Сергей Никоненко, Никита Михалков, Олег Ефремов, Марина Левтова, Николай Парфенов, Виктор Ильичев, Раиса Рязанова, Юрий Кузьменков, Николай Засухин, Евгений Перов, Анатолий Ганшин, Данила Петров

Сюжет фильма: Образ на редкость честного инспектора ГАИ (лучшая роль в кино Сергея Никоненко), пострадавшего за свою принципиальность, стоит в одном ряду с самыми любимыми милиционерами советского экрана, такими как «Деревенский детектив» Жаров, «Знатоки» Каневский, Мартынюк и Леждей, дуэт Ланового и Юматова с «Петровки, 38» и добродушный автоинспектор Жженов в «Берегись автомобиля». Образ, между прочим, имеет реальный прототип и оттого еще более удивителен и дорог сердцу зрителя.Петр Зыкин, скромный инспектор ГАИ, однажды останавливает наглого и откровенного нарушителя — директора станции техобслуживания Турнова (очень убедительная работа Никиты Михалкова). Штрафник пытается воспользоваться своими связями и "поставить на место" не в меру ретивого милиционера...

Мировая премьера: 30 мая 1983



Издатель: Ruscico
Личная оценка: 10 - всем советую
Продолжительность: 01:15:35
Качество видео: DVDRip (рип с DVD9)
Видео: кодек: XviD, размер кадра: 704x512, битрейт: 2132 кб/с, bit/pixel: 0.237
Аудио: язык: Русский , перевод: оригинал, кодек: AC3 5.1, битрейт: 448 кб/с

Релиз группы: Автор рипа:

Общее
Формат : AVI
Формат/Информация : Audio Video Interleave
Размер файла : 1,37 Гбайт
Продолжительность : 1 ч. 15 м.
Общий поток : 2590 Кбит/сек
Название фильма : Инспектор ГАИ (1982) DVDRip
Режиссёр : tise
Программа кодирования : VirtualDubModRus 1.5.10.2 (build 2542/release)
Библиотека кодирования : VirtualDubMod build 2542/release
Правообладатель : www.powertracker.org

Видео
Идентификатор : 0
Формат : MPEG-4 Visual
Профиль формата : Advanced Simple@L5
Параметр BVOP формата : 1
Параметр QPel формата : Нет
Параметр GMC формата : Без точки перехода
Параметр матрицы формата : Default (MPEG)
Идентификатор кодека : XVID
Идентификатор кодека/Подсказка : XviD
Продолжительность : 1 ч. 15 м.
Битрейт : 2132 Кбит/сек
Ширина : 704 пикселя
Высота : 512 пикселей
Соотношение сторон : 4:3
Частота кадров : 25,000 кадров/сек
Цветовое пространство : YUV
Субдискретизация насыщенности : 4:2:0
Битовая глубина : 8 бит
Тип развёртки : Прогрессивная
Метод сжатия : С потерями
Бит/(Пиксели*Кадры) : 0.237
Размер потока : 1,13 Гбайт (82%)
Библиотека кодирования : XviD 64

Аудио
Идентификатор : 1
Формат : AC-3
Формат/Информация : Audio Coding 3
Расширение режима : CM (complete main)
Идентификатор кодека : 2000
Продолжительность : 1 ч. 15 м.
Вид битрейта : Постоянный
Битрейт : 448 Кбит/сек
Каналы : 6 каналов
Расположение каналов : Front: L C R, Side: L R, LFE
Частота : 48,0 КГц
Битовая глубина : 16 бит
Метод сжатия : С потерями
Размер потока : 242 Мбайт (17%)
Выравнивание : Разделение по промежуткам
Продолжительность промежутка : 40 мс. (1,00 видеокадр)
Время предзагрузки промежутка : 500 мс.





   Похожие торренты   Торрент   Размер 
В этой теме нет новых непрочитанных сообщений. Инспектор ГАИ (1982) DVDRip-AVC от PowerTracker

440 | 15

1.45 ГБ

В этой теме нет новых непрочитанных сообщений. Инспектор ГАИ (1982) DVDRip-AVC от ExKinoRay

200 | 44

1.7 ГБ

В этой теме нет новых непрочитанных сообщений. Инспектор ГАИ (1982) DVDRip от Киномагия

15 | 7

1.37 ГБ

В этой теме нет новых непрочитанных сообщений. Инспектор Лосев (1982) DVDRip

57 | 17

2.05 ГБ

В этой теме нет новых непрочитанных сообщений. Инспектор ГАИ (1982) HDDVDRip 720p от ExKinoRay

196 | 67

2.89 ГБ

В этой теме нет новых непрочитанных сообщений. Фанни и Александр / Fanny och Alexander [TV VERSION] (1982) BDRip-AVC от PowerTracker

15 | 4

4.37 ГБ

В этой теме нет новых непрочитанных сообщений. Туман (2010) DVDRip от PowerTracker

30 | 6

2.19 ГБ




Вы не можете начинать темы
Вы не можете отвечать на сообщения
Вы не можете редактировать свои сообщения
Вы не можете удалять свои сообщения
Вы не можете добавлять вложения

Перейти:  
Для Мосгорсуда, Роскомнадзора и рекламодателей: mosgorsud-torrent[собачка]yandex.ru
 Вход
ppkBB3cker v.2 © 2008-2014 @ PPK
[ Time : 0.021s | 14 Queries | GZIP : Off ]

Торрент трекер RUTOR.IN, Не можете зайти на rutor.org? Какой новый адрес рутор? Какое зеркало рутор? Не работает rutor.org и зеркала? Тогда наш торрент специально для вас. Rutor.in неофициальное зеркало rutor. В случае если у Вас заблокирован rutor или вдруг Вы не можете на него зайти, то Вы без труда сможете скачать бесплатно и без рекламы последние новинки кино, игр, сериалов и прочего у нас, на Rutor.in. Не нужно использовать прокси, чтобы зайти на рутор, достаточно воспользоваться нашим ресурсом. Все новые фильмы, игры, сериалы, книги и музыка за 2013 и 2014 годы через торрент бесплатно. Скачивайте фильмы в хорошем качестве, игры для пк, xbox, playstation без регистрации. У нас вы найдете новые Зарубежные сериалы и Русские сериалы 2013, 2014, 2015 годов. Оставайтесь с нами, качайте любимые фильмы, игры, сериалы, книги и музыку.