img image001 image001 image001 image001 image001 image001 image001 image001 image001 image001 image001 image001 image001 image001 image001

Planets Sun Sun Sun
Статистика раздачи
Автор: Снежана | Размер: 2.18 ГБ | Добавлен: 24 июл 2013
Раздают: 10    Качают: 2
Скачать торрент
Скачать торрент
Описание торрента

СообщениеДобавлено: 24 июл 2013 

Ёлки 2 (2011) BDRip-AVC

Релиз от HQ-ViDEO


Год выхода: 2011
Страна: Россия
Жанр: Мелодрама, Комедия, Семейный
Режиссер: Дмитрий Киселёв, Александр Баранов, Александр Котт, ...

В ролях: Сергей Светлаков, Иван Ургант, Вера Брежнева, Сергей Безруков, Владимир Меньшов, Гоша Куценко, Александр Головин, Виктор Вержбицкий, Алексей Петренко, Петр Федоров.

О фильме: За этот год много чего произошло, но наступит день, который всё расставит на свои места. Продолжение новогодних историй, которые происходили в жизни героев в фильме «Ёлки»..



Релиз:

Автор рипа: agc

Продолжительность: 01:40:19

Перевод: Русский

Субтитры: Нет
Информация о файле:
Качество: BDRip (Исходник: Blu-Ray Disc)
Формат: MKV
Видео: MPEG-4 AVC; x264 codec, 1024 x 576 (16:9); 23.976 fps; ~ 2669 kbps; 0.189 bit/pixel
Аудио : 48 kHz, AC3 Dolby Digital, 3/2 (L,C,R,l,r) + LFE ch, ~448.00 kbps avg | Рус

Размер: 2239,54 Mb (1/2 DVD)




---[NoImage] x264 [info]: frame I:1503 Avg QP:16.22 size: 82826
---[NoImage] x264 [info]: frame P:33893 Avg QP:19.00 size: 26984
---[NoImage] x264 [info]: frame B:108921 Avg QP:21.57 size: 8890
---[NoImage] x264 [info]: consecutive B-frames: 3.2% 3.3% 12.4% 22.5% 12.1% 40.1% 3.5% 1.2% 1.2% 0.2% 0.4%
---[NoImage] x264 [info]: mb I I16..4: 10.9% 66.5% 22.5%
---[NoImage] x264 [info]: mb P I16..4: 5.3% 13.3% 2.1% P16..4: 36.2% 22.6% 12.7% 0.0% 0.0% skip: 7.7%
---[NoImage] x264 [info]: mb B I16..4: 1.0% 1.1% 0.2% B16..8: 36.6% 11.2% 3.3% direct: 7.5% skip:39.1% L0:41.8% L1:41.8% BI:16.4%
---[NoImage] x264 [info]: 8x8 transform intra:61.1% inter:63.6%
---[NoImage] x264 [info]: coded y,uvDC,uvAC intra: 64.0% 86.5% 68.5% inter: 21.5% 26.2% 8.7%
---[NoImage] x264 [info]: i16 v,h,dc,p: 76% 7% 4% 12%
---[NoImage] x264 [info]: i8 v,h,dc,ddl,ddr,vr,hd,vl,hu: 13% 10% 9% 8% 11% 12% 12% 12% 12%
---[NoImage] x264 [info]: i4 v,h,dc,ddl,ddr,vr,hd,vl,hu: 12% 9% 7% 9% 14% 14% 13% 11% 12%
---[NoImage] x264 [info]: i8c dc,h,v,p: 43% 20% 20% 17%
---[NoImage] x264 [info]: Weighted P-Frames: Y:10.0% UV:6.3%
---[NoImage] x264 [info]: ref P L0: 47.7% 11.8% 17.3% 6.2% 5.1% 3.5% 3.1% 1.7% 1.7% 1.6% 0.3% 0.0%
---[NoImage] x264 [info]: ref B L0: 73.5% 11.7% 5.7% 2.9% 2.2% 1.7% 1.3% 0.6% 0.3%
---[NoImage] x264 [info]: ref B L1: 93.2% 6.8%
---[NoImage] x264 [info]: kb/s:2667.91

Формат : Matroska
Версия формата : Version 2
Размер файла : 2,18 Гбайт
Продолжительность : 1 ч. 40 м.
Общий поток : 3118 Кбит/сек
Дата кодирования : UTC 2012-02-14 17:11:12
Программа кодирования : mkvmerge v4.9.1 ('Ich will') сборка от Jul 11 2011 23:53:15
Библиотека кодирования : libebml v1.2.1 + libmatroska v1.1.1

Видео
Идентификатор : 1
Формат : AVC
Формат/Информация : Advanced Video Codec
Профиль формата : High@L4.1
Параметр CABAC формата : Да
Параметр ReFrames формата : 10 кадров
Идентификатор кодека : V_MPEG4/ISO/AVC
Продолжительность : 1 ч. 40 м.
Битрейт : 2669 Кбит/сек
Ширина : 1024 пикселя
Высота : 576 пикселей
Соотношение сторон : 16:9
Частота кадров : 23,976 кадра/сек
Цветовое пространство : YUV
Субдискретизация насыщенности : 4:2:0
Битовая глубина : 8 бит
Тип развёртки : Прогрессивная
Бит/(Пиксели*Кадры) : 0.189
Размер потока : 1,83 Гбайт (84%)
Библиотека кодирования : x264 core 120 r2164 da19765
Настройки программы : cabac=1 / ref=10 / deblock=1:-2:-1 / analyse=0x3:0x113 / me=umh / subme=10 / psy=1 / psy_rd=1.05:0.10 / mixed_ref=1 / me_range=32 / chroma_me=1 / trellis=2 / 8x8dct=1 / cqm=0 / deadzone=21,11 / fast_pskip=0 / chroma_qp_offset=-3 / threads=6 / sliced_threads=0 / nr=0 / decimate=1 / interlaced=0 / bluray_compat=0 / constrained_intra=0 / bframes=10 / b_pyramid=2 / b_adapt=2 / b_bias=0 / direct=1 / weightb=1 / open_gop=0 / weightp=2 / keyint=230 / keyint_min=22 / scenecut=40 / intra_refresh=0 / rc=2pass / mbtree=0 / bitrate=2669 / ratetol=1.0 / qcomp=0.60 / qpmin=0 / qpmax=69 / qpstep=4 / cplxblur=20.0 / qblur=0.5 / ip_ratio=1.40 / pb_ratio=1.30 / aq=1:1.00

Аудио
Идентификатор : 2
Формат : AC-3
Формат/Информация : Audio Coding 3
Расширение режима : CM (complete main)
Идентификатор кодека : A_AC3
Продолжительность : 1 ч. 40 м.
Вид битрейта : Постоянный
Битрейт : 448 Кбит/сек
Каналы : 6 каналов
Расположение каналов : Front: L C R, Side: L R, LFE
Частота : 48,0 КГц
Битовая глубина : 16 бит
Метод сжатия : С потерями
Размер потока : 321 Мбайт (14%)
Язык : Russian


Скриншоты для оценки качества:


ПРИЯТНОГО ПРОСМОТРА!



   Похожие торренты   Торрент   Размер 
В этой теме нет новых непрочитанных сообщений. Ёлки 2 (2011) BDRip от HQ-ViDEO

7 | 3

1.45 ГБ

В этой теме нет новых непрочитанных сообщений. Ёлки 2 (2011) BDRip 720p от HQ-ViDEO

149 | 4

4.37 ГБ

В этой теме нет новых непрочитанных сообщений. Ёлки (2010) BDRip от HQ-ViDEO

152 | 7

1.46 ГБ

В этой теме нет новых непрочитанных сообщений. Ёлки (2010) BDRip 720p от HQ-ViDEO

653 | 37

3.77 ГБ

В этой теме нет новых непрочитанных сообщений. Ёлки / Yolki (2010) BDRip-AVC от HQ-ViDEO

333 | 8

1.45 ГБ

В этой теме нет новых непрочитанных сообщений. Ёлки 3 / Yolki 3 (2013) BDRip-AVC от HQ-ViDEO

350 | 16

1.45 ГБ

В этой теме нет новых непрочитанных сообщений. Ёлки 2 (2011) BDRip-AVC от R.G. AVI | AVC

0 | 2

2.18 ГБ




Вы не можете начинать темы
Вы не можете отвечать на сообщения
Вы не можете редактировать свои сообщения
Вы не можете удалять свои сообщения
Вы не можете добавлять вложения

Перейти:  
Для Мосгорсуда, Роскомнадзора и рекламодателей: mosgorsud-torrent[собачка]yandex.ru
 Вход
ppkBB3cker v.2 © 2008-2014 @ PPK
[ Time : 0.282s | 15 Queries | GZIP : Off ]

Торрент трекер RUTOR.IN, Не можете зайти на rutor.org? Какой новый адрес рутор? Какое зеркало рутор? Не работает rutor.org и зеркала? Тогда наш торрент специально для вас. Rutor.in неофициальное зеркало rutor. В случае если у Вас заблокирован rutor или вдруг Вы не можете на него зайти, то Вы без труда сможете скачать бесплатно и без рекламы последние новинки кино, игр, сериалов и прочего у нас, на Rutor.in. Не нужно использовать прокси, чтобы зайти на рутор, достаточно воспользоваться нашим ресурсом. Все новые фильмы, игры, сериалы, книги и музыка за 2013 и 2014 годы через торрент бесплатно. Скачивайте фильмы в хорошем качестве, игры для пк, xbox, playstation без регистрации. У нас вы найдете новые Зарубежные сериалы и Русские сериалы 2013, 2014, 2015 годов. Оставайтесь с нами, качайте любимые фильмы, игры, сериалы, книги и музыку.
cron