img image001 image001 image001 image001 image001 image001 image001 image001 image001 image001 image001 image001 image001 image001 image001

Planets Sun Sun Sun
Статистика раздачи
Автор: Снежана | Размер: 2.05 ГБ | Добавлен: 24 июл 2013
Раздают: 586    Качают: 48
Скачать торрент
Скачать торрент
Описание торрента

СообщениеДобавлено: 24 июл 2013 

#77


Название: Калина красная
Год выхода: 1973
Жанр: Драма
Режиссер: Василий Шукшин
В ролях: Лидия Федосеева-Шукшина, Василий Шукшин, Иван Рыжов, Мария Скворцова, Георгий Бурков, Жанна Прохоренко, Лев Дуров

О фильме: Прокудин - человек сложной и необычной судьбы, много лет пробывший в заключении. Выйдя из тюрьмы, он решает податься в деревню, где живет синеглазая незнакомка Люба, с которой он переписывался - ведь надо немного переждать и осмотреться. Но жизнь в деревне рушит все планы Прокудина, и он решает навсегда порвать с прошлым. Теперь у Егора есть друзья, работа. Он любит Любу. Но через некоторое время смерть настигает Егора в березовой роще около вспаханного им поля.
"Самой сложной задачей в этом фильме было "разрушить", преодолеть сюжет, перевести разговор в иную, более сложную, плоскость. Рассказать не о злосчастной судьбе рецидивиста - рассказать о душе. О том, как не устроена она в жизни, как мается и ищет своего места." - Василий Шукшин.

Доп. информация: Лучший фильм года, Василий Шукшин - лучший актер года по опросу журнала "Советский экран".



Выпущено: CCCP
Продолжительность: 01:41:56
Язык: Русский


Кодек: H264/High@L4.1
Качество видео: DVDRip-AVC
Формат: MKV
Видео: 720x576&768x576 4:3, 25 fps, ~2429 kbps avg, 0.234 bit/pixel
Аудио: AC 3, 48 kHz, 6 ch, 448 kbps avg









Уникальный идентификатор : 207588036638278409664152331373836162210 (0x9C2C0067EDAB7C9CAB14035EB0A6D4A2)
Формат : Matroska
Версия формата : Version 2
Размер файла : 2,05 Гбайт
Продолжительность : 1 ч. 41 м.
Общий поток : 2879 Кбит/сек
Дата кодирования : UTC 2012-01-26 10:00:17
Программа кодирования : mkvmerge v5.2.0 ('I can't explain') built on Dec 18 2011 18:12:03
Библиотека кодирования : libebml v1.2.3 + libmatroska v1.3.0

Видео
Идентификатор : 1
Формат : AVC
Формат/Информация : Advanced Video Codec
Профиль формата : High@L4.1
Параметр CABAC формата : Да
Параметр ReFrames формата : 16 кадров
Идентификатор кодека : V_MPEG4/ISO/AVC
Продолжительность : 1 ч. 41 м.
Битрейт : 2429 Кбит/сек
Ширина : 720 пикселей
Высота : 576 пикселей
Соотношение сторон : 4:3
Частота кадров : 25,000 кадров/сек
Стандарт вещания : PAL
Цветовое пространство : YUV
Субдискретизация насыщенности : 4:2:0
Битовая глубина : 8 бит
Тип развёртки : Прогрессивная
Бит/(Пиксели*Кадры) : 0.234
Размер потока : 1,69 Гбайт (82%)
Библиотека кодирования : x264 core 120 r2146 bcd41db
Настройки программы : cabac=1 / ref=16 / deblock=1:-1:-1 / analyse=0x3:0x133 / me=tesa / subme=11 / psy=1 / psy_rd=1.00:0.15 / mixed_ref=1 / me_range=24 / chroma_me=1 / trellis=2 / 8x8dct=1 / cqm=0 / deadzone=21,11 / fast_pskip=0 / chroma_qp_offset=-3 / threads=18 / sliced_threads=0 / nr=0 / decimate=0 / interlaced=0 / bluray_compat=0 / constrained_intra=0 / bframes=8 / b_pyramid=2 / b_adapt=2 / b_bias=0 / direct=3 / weightb=1 / open_gop=0 / weightp=2 / keyint=250 / keyint_min=25 / scenecut=40 / intra_refresh=0 / rc_lookahead=60 / rc=2pass / mbtree=1 / bitrate=2429 / ratetol=1.0 / qcomp=0.60 / qpmin=0 / qpmax=69 / qpstep=4 / cplxblur=20.0 / qblur=0.5 / vbv_maxrate=62500 / vbv_bufsize=78125 / nal_hrd=none / ip_ratio=1.40 / aq=2:1.00

Аудио
Идентификатор : 2
Формат : AC-3
Формат/Информация : Audio Coding 3
Расширение режима : CM (complete main)
Идентификатор кодека : A_AC3
Продолжительность : 1 ч. 41 м.
Вид битрейта : Постоянный
Битрейт : 448 Кбит/сек
Каналы : 6 каналов
Расположение каналов : Front: L C R, Side: L R, LFE
Частота : 48,0 КГц
Битовая глубина : 16 бит
Метод сжатия : С потерями
Задержка видео : 193 мс.
Размер потока : 327 Мбайт (16%)
Язык : Russian



   Похожие торренты   Торрент   Размер 
В этой теме нет новых непрочитанных сообщений. Калина красная (1973) DVDRip

408 | 22

689.79 МБ

В этой теме нет новых непрочитанных сообщений. Калина красная (1973) DVDRip

325 | 25

1.47 ГБ

В этой теме нет новых непрочитанных сообщений. Калина красная (1973) DVDRip от MediaClub | КПК

80 | 10

463.45 МБ

В этой теме нет новых непрочитанных сообщений. Калина красная (1973) HDTVRip от Шкипер

53 | 9

746.18 МБ

В этой теме нет новых непрочитанных сообщений. Калина красная (1973) DVD5 by гаврила

28 | 7

4.07 ГБ

В этой теме нет новых непрочитанных сообщений. Калина красная (1973) HDTVRip 720p от ExKinoRay

148 | 13

2.98 ГБ

В этой теме нет новых непрочитанных сообщений. Сборник - Калина Красная 21 (2013) MP3

24 | 3

139.78 МБ




Вы не можете начинать темы
Вы не можете отвечать на сообщения
Вы не можете редактировать свои сообщения
Вы не можете удалять свои сообщения
Вы не можете добавлять вложения

Перейти:  
Для Мосгорсуда, Роскомнадзора и рекламодателей: mosgorsud-torrent[собачка]yandex.ru
 Вход
ppkBB3cker v.2 © 2008-2014 @ PPK
[ Time : 0.029s | 14 Queries | GZIP : On ]

Торрент трекер RUTOR.IN, Не можете зайти на rutor.org? Какой новый адрес рутор? Какое зеркало рутор? Не работает rutor.org и зеркала? Тогда наш торрент специально для вас. Rutor.in неофициальное зеркало rutor. В случае если у Вас заблокирован rutor или вдруг Вы не можете на него зайти, то Вы без труда сможете скачать бесплатно и без рекламы последние новинки кино, игр, сериалов и прочего у нас, на Rutor.in. Не нужно использовать прокси, чтобы зайти на рутор, достаточно воспользоваться нашим ресурсом. Все новые фильмы, игры, сериалы, книги и музыка за 2013 и 2014 годы через торрент бесплатно. Скачивайте фильмы в хорошем качестве, игры для пк, xbox, playstation без регистрации. У нас вы найдете новые Зарубежные сериалы и Русские сериалы 2013, 2014, 2015 годов. Оставайтесь с нами, качайте любимые фильмы, игры, сериалы, книги и музыку.