img image001 image001 image001 image001 image001 image001 image001 image001 image001 image001 image001 image001 image001 image001 image001

Planets Sun Sun Sun
Статистика раздачи
Автор: Снежана | Размер: 1.37 ГБ | Добавлен: 24 июл 2013
Раздают: 200    Качают: 16
Скачать торрент
Скачать торрент
Описание торрента

СообщениеДобавлено: 24 июл 2013 

#77

Жанр: драма, военный
Страна: СССР
Режиссер: Алексей Герман
В ролях: Ролан Быков, Анатолий Солоницын, Владимир Заманский, Олег Борисов, Федор Одиноков, Геннадий Дюдяев, Майя Булгакова, Николай Бурляев, Виктор Павлов, Юрий Дубровин

Сюжет фильма: Зима 1942 года. В одной из северо — западных областей России, оккупированной фашистами, действует партизанский отряд лейтенанта Ивана Локоткова, в прошлом — сельского милиционера. Отряд кормить нечем: в округе — одни сожженные деревни и каратели. Командир принимает решение захватить фашистский эшелон с продовольствием на узловой станции, где охраняется каждый метр. Провести операцию берется раскаявшийся полицай Лазарев, которого немцы знают в лицо. Но можно ли ему довериться?

Полная реставрация изображения и звука. Издание от "Ленфильм-видео".

Мировая премьера: 6 ноября 1986



Личная оценка: 10 - всем советую
Продолжительность: 01:32:01
Качество видео: DVDRip (рип с DVD9)
Видео: кодек: XviD, размер кадра: 720x304, битрейт: 1670 кб/с, bit/pixel: 0.305
Аудио: язык: Русский , перевод: оригинал, кодек: AC3 5.1, битрейт: 448 кб/с

Релиз группы: Автор рипа:

Общее
Формат : AVI
Формат/Информация : Audio Video Interleave
Размер файла : 1,37 Гбайт
Продолжительность : 1 ч. 32 м.
Общий поток : 2128 Кбит/сек
Название фильма : Проверка на дорогах (1971) DVDRip
Режиссёр : tise
Программа кодирования : VirtualDubModRus 1.5.10.2 (build 2542/release)
Библиотека кодирования : VirtualDubMod build 2542/release
Правообладатель : www.powertracker.org

Видео
Идентификатор : 0
Формат : MPEG-4 Visual
Профиль формата : Advanced Simple@L5
Параметр BVOP формата : 1
Параметр QPel формата : Нет
Параметр GMC формата : Без точки перехода
Параметр матрицы формата : Default (MPEG)
Идентификатор кодека : XVID
Идентификатор кодека/Подсказка : XviD
Продолжительность : 1 ч. 32 м.
Битрейт : 1670 Кбит/сек
Ширина : 720 пикселей
Высота : 304 пикселя
Соотношение сторон : 16:9
Частота кадров : 25,000 кадров/сек
Цветовое пространство : YUV
Субдискретизация насыщенности : 4:2:0
Битовая глубина : 8 бит
Тип развёртки : Прогрессивная
Метод сжатия : С потерями
Бит/(Пиксели*Кадры) : 0.305
Размер потока : 1,07 Гбайт (78%)
Библиотека кодирования : XviD 64

Аудио
Идентификатор : 1
Формат : AC-3
Формат/Информация : Audio Coding 3
Расширение режима : CM (complete main)
Идентификатор кодека : 2000
Продолжительность : 1 ч. 32 м.
Вид битрейта : Постоянный
Битрейт : 448 Кбит/сек
Каналы : 6 каналов
Расположение каналов : Front: L C R, Side: L R, LFE
Частота : 48,0 КГц
Битовая глубина : 16 бит
Метод сжатия : С потерями
Размер потока : 295 Мбайт (21%)
Выравнивание : Разделение по промежуткам
Продолжительность промежутка : 40 мс. (1,00 видеокадр)
Время предзагрузки промежутка : 500 мс.





   Похожие торренты   Торрент   Размер 
В этой теме нет новых непрочитанных сообщений. Проверка на дорогах (1971) DVDRip-AVC от PowerTracker

98 | 12

1.45 ГБ

В этой теме нет новых непрочитанных сообщений. Проверка на дорогах (1971) DVDRip

119 | 13

1005.15 МБ

В этой теме нет новых непрочитанных сообщений. Проверка на дорогах (1971) DVDRip от MediaClub | КПК

25 | 3

417.53 МБ

В этой теме нет новых непрочитанных сообщений. Соломенные псы / Straw Dogs (1971) BDRip-AVC от PowerTracker

7 | 2

1.36 ГБ

В этой теме нет новых непрочитанных сообщений. На дорогах войны (1958) TVRip

111 | 5

744.83 МБ

В этой теме нет новых непрочитанных сообщений. Честный детектив. Клоуны на дорогах (2010) SATRip

2 | 10

289.55 МБ

В этой теме нет новых непрочитанных сообщений. Честный детектив. Клоуны на дорогах 2 (2011) IPTVRip от RiperAM

0 | 2

371.12 МБ




Вы не можете начинать темы
Вы не можете отвечать на сообщения
Вы не можете редактировать свои сообщения
Вы не можете удалять свои сообщения
Вы не можете добавлять вложения

Перейти:  
Для Мосгорсуда, Роскомнадзора и рекламодателей: mosgorsud-torrent[собачка]yandex.ru
 Вход
ppkBB3cker v.2 © 2008-2014 @ PPK
[ Time : 0.026s | 15 Queries | GZIP : Off ]

Торрент трекер RUTOR.IN, Не можете зайти на rutor.org? Какой новый адрес рутор? Какое зеркало рутор? Не работает rutor.org и зеркала? Тогда наш торрент специально для вас. Rutor.in неофициальное зеркало rutor. В случае если у Вас заблокирован rutor или вдруг Вы не можете на него зайти, то Вы без труда сможете скачать бесплатно и без рекламы последние новинки кино, игр, сериалов и прочего у нас, на Rutor.in. Не нужно использовать прокси, чтобы зайти на рутор, достаточно воспользоваться нашим ресурсом. Все новые фильмы, игры, сериалы, книги и музыка за 2013 и 2014 годы через торрент бесплатно. Скачивайте фильмы в хорошем качестве, игры для пк, xbox, playstation без регистрации. У нас вы найдете новые Зарубежные сериалы и Русские сериалы 2013, 2014, 2015 годов. Оставайтесь с нами, качайте любимые фильмы, игры, сериалы, книги и музыку.