img image001 image001 image001 image001 image001 image001 image001 image001 image001 image001 image001 image001 image001 image001 image001

Planets Sun Sun Sun
Статистика раздачи
Автор: Снежана | Размер: 4.36 ГБ | Добавлен: 24 июл 2013
Раздают: 1    Качают: 2
Скачать торрент
Скачать торрент
Описание торрента

СообщениеДобавлено: 24 июл 2013 

#77
Название: Камень
Год выпуска: 2011
Страна: Россия
Слоган: «Когда остаешься один, твое сердце превращается в...»
Жанр: триллер
Продолжительность: 01:24:49
Перевод: Не требуется

Режиссер: Вячеслав Каминский
Сценарий: Юсуп Разыков, Олег Антонов
Продюсер: Сергей Светлаков, Вячеслав Каминский, Абдул Абдулвасиев
Оператор: Руслан Герасименков
Композитор: Юрий Шевалин, DJ Shved
В ролях: Сергей Светлаков, Олеся Судзиловская, Николай Козак, Елена Коренева, Валда Бичкуте, Александр Колесников

Описание: Когда у известного бизнесмена похищают 7-летнего сына, он еще не представляет, какое испытание его ждет! Оказывается, таинственному похитителю не нужен никакой выкуп и у него единственное требование к отцу. В течение следующих суток тот должен решить, кто умрет из них двоих: его ребенок или он сам...


Релиз:

Качество: DVD5 (сжатый)
Формат: DVD Video
Видео: MPEG2; PAL 16:9 (720x576)
Аудио: Dolby AC3, 6 ch, 448 Kbps Russian
Субтитры: нет

Дополнительная информация :
Исходник : DVD9 (4.68 Гб) [лицензия, PAL 16:9]
Убрано : клип, реклама
Сжатие фильма : нет

DVDRemakePro
Photoshop
MuxMan
Работоспособность проверена на софтовом плеере Windows Media и бытовом LG
Title: Kamen_2011_DVD5
Size: 4.36 Gb ( 4 571 230,00 KBytes ) - DVD-5
Enabled regions: 1, 2, 3, 4, 5, 6, 7, 8

VTS_01 :
Play Length: 00:00:15
Video: PAL 4:3 (720x576) VBR
Audio:
Not specified (Dolby AC3, 2 ch)

VTS_02 :
Play Length: 00:00:08
Video: PAL 16:9 (720x576) VBR, Auto Letterboxed
Audio:
Not specified (Dolby AC3, 2 ch)

VTS_03 :
Play Length: 01:24:49
Video: PAL 16:9 (720x576) VBR, Auto Letterboxed
Audio:
Russian (Dolby AC3, 6 ch)

VTS_04 :
Play Length: 00:00:00
Video: PAL 16:9 (720x576) VBR, Auto Letterboxed
Audio:
Not specified (Dolby AC3, 2 ch)

VTS_05 :
Play Length: 00:00:00
Video: PAL 16:9 (720x576) VBR, Auto Letterboxed
Audio:
Not specified (Dolby AC3, 2 ch)
Формат : MPEG-PS
Размер файла : 1024 Мбайт
Продолжительность : 19 м.
Режим общего битрейта : Переменный
Общий поток : 7292 Кбит/сек
Библиотека кодирования : encoded by TMPGEnc 4.0 XPress Version. 4.7.4.299

Видео
Идентификатор : 224 (0xE0)
Формат : MPEG Video
Версия формата : Version 2
Профиль формата : Main@Main
Параметр BVOP формата : Да
Параметр матрицы формата : Выборочная
Параметр GOP формата : M=3, N=13
Продолжительность : 19 м.
Вид битрейта : Переменный
Битрейт : 6699 Кбит/сек
Максимальный битрейт : 7500 Кбит/сек
Ширина : 720 пикселей
Высота : 576 пикселей
Соотношение сторон : 16:9
Частота кадров : 25,000 кадров/сек
Стандарт вещания : PAL
Цветовое пространство : YUV
Субдискретизация насыщенности : 4:2:0
Битовая глубина : 8 бит
Тип развёртки : Прогрессивная
Метод сжатия : С потерями
Бит/(Пиксели*Кадры) : 0.646
Размер потока : 941 Мбайт (92%)
Библиотека кодирования : TMPGEnc XPress 4.7.4.299

Аудио
Идентификатор : 189 (0xBD)-128 (0x80)
Формат : AC-3
Формат/Информация : Audio Coding 3
Расширение режима : CM (complete main)
Режим смешивания : DVD-Video
Продолжительность : 19 м.
Вид битрейта : Постоянный
Битрейт : 448 Кбит/сек
Каналы : 6 каналов
Расположение каналов : Front: L C R, Side: L R, LFE
Частота : 48,0 КГц
Битовая глубина : 16 бит
Метод сжатия : С потерями
Размер потока : 62,9 Мбайт (6%)

Меню
Фильм снят на основе романа Юрия Бригадира «Не жить».




   Похожие торренты   Торрент   Размер 
В этой теме нет новых непрочитанных сообщений. Камень желаний / Shorts (2009) DVD5 от Youtracker | P | Лицензия

2 | 2

3.49 ГБ

В этой теме нет новых непрочитанных сообщений. Проклятый камень / Greystone Park (2012) DVD5 R5 от Youtracker | P | лицензия

4 | 2

4.36 ГБ

В этой теме нет новых непрочитанных сообщений. Камень (2011) Blu-Ray

1 | 3

15.55 ГБ

В этой теме нет новых непрочитанных сообщений. Камень (2011) HDRip от Youtracker

45 | 4

1.46 ГБ

В этой теме нет новых непрочитанных сообщений. Камень (2011) HDRip от Scarabey

74 | 7

742.58 МБ

В этой теме нет новых непрочитанных сообщений. Камень (2011) HDRip от Scarabey

134 | 16

1.45 ГБ

В этой теме нет новых непрочитанных сообщений. Камень (2011) BDRip-AVC от HQ-ViDEO

7 | 4

1.45 ГБ




Вы не можете начинать темы
Вы не можете отвечать на сообщения
Вы не можете редактировать свои сообщения
Вы не можете удалять свои сообщения
Вы не можете добавлять вложения

Перейти:  
Для Мосгорсуда, Роскомнадзора и рекламодателей: mosgorsud-torrent[собачка]yandex.ru
 Вход
ppkBB3cker v.2 © 2008-2014 @ PPK
[ Time : 0.019s | 15 Queries | GZIP : Off ]

cron