img image001 image001 image001 image001 image001 image001 image001 image001 image001 image001 image001 image001 image001 image001 image001

Planets Sun Sun Sun
Статистика раздачи
Автор: Снежана | Размер: 1.45 ГБ | Добавлен: 24 июл 2013
Раздают: 98    Качают: 12
Скачать торрент
Скачать торрент
Описание торрента

СообщениеДобавлено: 24 июл 2013 

#77

Жанр: драма, военный
Страна: СССР
Режиссер: Алексей Герман
В ролях: Ролан Быков, Анатолий Солоницын, Владимир Заманский, Олег Борисов, Федор Одиноков, Геннадий Дюдяев, Майя Булгакова, Николай Бурляев, Виктор Павлов, Юрий Дубровин

Сюжет фильма: Зима 1942 года. В одной из северо — западных областей России, оккупированной фашистами, действует партизанский отряд лейтенанта Ивана Локоткова, в прошлом — сельского милиционера. Отряд кормить нечем: в округе — одни сожженные деревни и каратели. Командир принимает решение захватить фашистский эшелон с продовольствием на узловой станции, где охраняется каждый метр. Провести операцию берется раскаявшийся полицай Лазарев, которого немцы знают в лицо. Но можно ли ему довериться?

Полная реставрация изображения и звука. Издание от "Ленфильм-видео".

Мировая премьера: 6 ноября 1986



Личная оценка: 10 - всем советую
Продолжительность: 01:32:01
Качество видео: DVDRip-AVC (рип с DVD9)
Видео: кодек: x264, размер кадра: 716x330@774x330, битрейт: 1805 кб/с, bit/pixel: 0.306
Аудио: язык: Русский , перевод: оригинал, кодек: AC3 5.1, битрейт: 448 кб/с

Релиз группы: Автор рипа:

Общее
Уникальный идентификатор : 227750544875365209164093810288951437381 (0xAB5728CFEB5A6966AD6A04D776EA2845)
Формат : Matroska
Версия формата : Version 2
Размер файла : 1,45 Гбайт
Продолжительность : 1 ч. 32 м.
Общий поток : 2255 Кбит/сек
Название фильма : Проверка на дорогах (1971) DVDRip-AVC rip by tise
Дата кодирования : UTC 2012-02-19 12:10:34
Программа кодирования : mkvmerge v5.2.1 ('A Far Off Place') built on Jan 2 2012 23:21:10
Библиотека кодирования : libebml v1.2.3 + libmatroska v1.3.0

Видео
Идентификатор : 1
Формат : AVC
Формат/Информация : Advanced Video Codec
Профиль формата : High@L4.1
Параметр CABAC формата : Да
Параметр ReFrames формата : 8 кадров
Идентификатор кодека : V_MPEG4/ISO/AVC
Продолжительность : 1 ч. 32 м.
Битрейт : 1805 Кбит/сек
Ширина : 716 пикселей
Высота : 330 пикселей
Соотношение сторон : 2,35:1
Соотношение сторон в оригинале : 2,35:1
Частота кадров : 25,000 кадров/сек
Цветовое пространство : YUV
Субдискретизация насыщенности : 4:2:0
Битовая глубина : 8 бит
Тип развёртки : Прогрессивная
Бит/(Пиксели*Кадры) : 0.306
Размер потока : 1,13 Гбайт (78%)
Библиотека кодирования : x264 core 120 r2164 da19765
Настройки программы : cabac=1 / ref=8 / deblock=1:-3:-3 / analyse=0x3:0x133 / me=umh / subme=10 / psy=1 / psy_rd=1.00:0.10 / mixed_ref=1 / me_range=48 / chroma_me=1 / trellis=2 / 8x8dct=1 / cqm=0 / deadzone=21,11 / fast_pskip=0 / chroma_qp_offset=-3 / threads=6 / sliced_threads=0 / nr=0 / decimate=1 / interlaced=0 / bluray_compat=0 / constrained_intra=0 / bframes=7 / b_pyramid=2 / b_adapt=2 / b_bias=0 / direct=3 / weightb=1 / open_gop=0 / weightp=2 / keyint=250 / keyint_min=23 / scenecut=40 / intra_refresh=0 / rc_lookahead=40 / rc=2pass / mbtree=1 / bitrate=1805 / ratetol=1.0 / qcomp=0.60 / qpmin=10 / qpmax=51 / qpstep=4 / cplxblur=20.0 / qblur=0.5 / ip_ratio=1.40 / aq=1:1.00
Default : Да
Forced : Нет

Аудио
Идентификатор : 2
Формат : AC-3
Формат/Информация : Audio Coding 3
Расширение режима : CM (complete main)
Идентификатор кодека : A_AC3
Продолжительность : 1 ч. 32 м.
Вид битрейта : Постоянный
Битрейт : 448 Кбит/сек
Каналы : 6 каналов
Расположение каналов : Front: L C R, Side: L R, LFE
Частота : 48,0 КГц
Битовая глубина : 16 бит
Метод сжатия : С потерями
Размер потока : 295 Мбайт (20%)
Заголовок : оригинал
Язык : Russian
Default : Да
Forced : Нет





   Похожие торренты   Торрент   Размер 
В этой теме нет новых непрочитанных сообщений. Проверка на дорогах (1971) DVDRip от PowerTracker

200 | 16

1.37 ГБ

В этой теме нет новых непрочитанных сообщений. Проверка на дорогах (1971) DVDRip

119 | 13

1005.15 МБ

В этой теме нет новых непрочитанных сообщений. Проверка на дорогах (1971) DVDRip от MediaClub | КПК

25 | 3

417.53 МБ

В этой теме нет новых непрочитанных сообщений. Соломенные псы / Straw Dogs (1971) BDRip-AVC от PowerTracker

7 | 2

1.36 ГБ

В этой теме нет новых непрочитанных сообщений. На дорогах войны (1958) TVRip

111 | 5

744.83 МБ

В этой теме нет новых непрочитанных сообщений. Честный детектив. Клоуны на дорогах (2010) SATRip

2 | 10

289.55 МБ

В этой теме нет новых непрочитанных сообщений. Честный детектив. Клоуны на дорогах 2 (2011) IPTVRip от RiperAM

0 | 2

371.12 МБ




Вы не можете начинать темы
Вы не можете отвечать на сообщения
Вы не можете редактировать свои сообщения
Вы не можете удалять свои сообщения
Вы не можете добавлять вложения

Перейти:  
Для Мосгорсуда, Роскомнадзора и рекламодателей: mosgorsud-torrent[собачка]yandex.ru
 Вход
ppkBB3cker v.2 © 2008-2014 @ PPK
[ Time : 0.020s | 15 Queries | GZIP : Off ]

Торрент трекер RUTOR.IN, Не можете зайти на rutor.org? Какой новый адрес рутор? Какое зеркало рутор? Не работает rutor.org и зеркала? Тогда наш торрент специально для вас. Rutor.in неофициальное зеркало rutor. В случае если у Вас заблокирован rutor или вдруг Вы не можете на него зайти, то Вы без труда сможете скачать бесплатно и без рекламы последние новинки кино, игр, сериалов и прочего у нас, на Rutor.in. Не нужно использовать прокси, чтобы зайти на рутор, достаточно воспользоваться нашим ресурсом. Все новые фильмы, игры, сериалы, книги и музыка за 2013 и 2014 годы через торрент бесплатно. Скачивайте фильмы в хорошем качестве, игры для пк, xbox, playstation без регистрации. У нас вы найдете новые Зарубежные сериалы и Русские сериалы 2013, 2014, 2015 годов. Оставайтесь с нами, качайте любимые фильмы, игры, сериалы, книги и музыку.