img image001 image001 image001 image001 image001 image001 image001 image001 image001 image001 image001 image001 image001 image001 image001

Planets Sun Sun Sun
Статистика раздачи
Автор: Снежана | Размер: 1.37 ГБ | Добавлен: 24 июл 2013
Раздают: 1    Качают: 2
Скачать торрент
Скачать торрент
Описание торрента

СообщениеДобавлено: 24 июл 2013 

#77

Жанр: мюзикл, драма, мелодрама, комедия
Страна: СССР
Режиссер: Карен Шахназаров
В ролях: Евгений Евстигнеев, Аркадий Насыров, Александр Панкратов-Черный, Наталья Гундарева, Сергей Никоненко, Петр Щербаков, Георгий Бурков, Михаил Державин, Александр Ширвиндт, Светлана Аманова

Сюжет фильма: Некогда знаменитый чечеточник, кумир публики, ныне живет скромно и незаметно. Он репетитор танцев в эстрадном коллективе, где блещут иные «звезды». И вдруг происходит несколько неожиданных событий, решительно нарушающих привычное, спокойное течение жизни старого артиста. Все началось с появления немного странного, очень напористого мололого человека. Совершенно лишенный чувства ритма, он потребовал, чтобы его ни много ни мало научили «бить степ»...

Покадровая реставрация изображения и ремастеринг звука проведены объединением «Крупный план»

Мировая премьера: 25 декабря 1985



Личная оценка: 10 - всем советую
Продолжительность: 01:25:02
Качество видео: DVDRip (рип с DVD5)
Видео: кодек: XviD, размер кадра: 704x512, битрейт: 1845 кб/с, bit/pixel: 0.205
Аудио: язык: Русский , перевод: оригинал, кодек: AC3 5.1, битрейт: 448 кб/с

Релиз группы: Автор рипа:

Общее
Формат : AVI
Формат/Информация : Audio Video Interleave
Размер файла : 1,37 Гбайт
Продолжительность : 1 ч. 25 м.
Общий поток : 2303 Кбит/сек
Название фильма : Зимний вечер в Гаграх (1985) DVDRip
Режиссёр : tise
Программа кодирования : VirtualDubModRus 1.5.10.2 (build 2542/release)
Библиотека кодирования : VirtualDubMod build 2542/release
Правообладатель : www.powertracker.org

Видео
Идентификатор : 0
Формат : MPEG-4 Visual
Профиль формата : Advanced Simple@L5
Параметр BVOP формата : 1
Параметр QPel формата : Нет
Параметр GMC формата : Без точки перехода
Параметр матрицы формата : Default (MPEG)
Идентификатор кодека : XVID
Идентификатор кодека/Подсказка : XviD
Продолжительность : 1 ч. 25 м.
Битрейт : 1845 Кбит/сек
Ширина : 704 пикселя
Высота : 512 пикселей
Соотношение сторон : 4:3
Частота кадров : 25,000 кадров/сек
Цветовое пространство : YUV
Субдискретизация насыщенности : 4:2:0
Битовая глубина : 8 бит
Тип развёртки : Прогрессивная
Метод сжатия : С потерями
Бит/(Пиксели*Кадры) : 0.205
Размер потока : 1,10 Гбайт (80%)
Библиотека кодирования : XviD 64

Аудио
Идентификатор : 1
Формат : AC-3
Формат/Информация : Audio Coding 3
Расширение режима : CM (complete main)
Идентификатор кодека : 2000
Продолжительность : 1 ч. 25 м.
Вид битрейта : Постоянный
Битрейт : 448 Кбит/сек
Каналы : 6 каналов
Расположение каналов : Front: L C R, Side: L R, LFE
Частота : 48,0 КГц
Битовая глубина : 16 бит
Метод сжатия : С потерями
Размер потока : 272 Мбайт (19%)
Выравнивание : Разделение по промежуткам
Продолжительность промежутка : 40 мс. (1,00 видеокадр)
Время предзагрузки промежутка : 500 мс.





   Похожие торренты   Торрент   Размер 
В этой теме нет новых непрочитанных сообщений. Зимний вечер в Гаграх (1985) DVDRip-AVC от PowerTracker

8 | 4

1.45 ГБ

В этой теме нет новых непрочитанных сообщений. Зимний вечер в Гаграх (1985) DVDRip

216 | 20

1.41 ГБ

В этой теме нет новых непрочитанных сообщений. Зимний вечер в Гаграх (1985) DVDRip

12 | 3

1.37 ГБ

В этой теме нет новых непрочитанных сообщений. Зимний вечер в Гаграх (1985) DVDRip от ENGINEER

53 | 9

1.46 ГБ

В этой теме нет новых непрочитанных сообщений. Зимний вечер в Гаграх (1985) DVDRip от R.G.RealMT | Реставрация

49 | 6

1.12 ГБ

В этой теме нет новых непрочитанных сообщений. Зимний вечер в Гаграх (1985) DVD9 | Реставрация

20 | 29

4.66 ГБ

В этой теме нет новых непрочитанных сообщений. Сборник - В зимний вечер у камина (2015) MP3

90 | 5

746.11 МБ




Вы не можете начинать темы
Вы не можете отвечать на сообщения
Вы не можете редактировать свои сообщения
Вы не можете удалять свои сообщения
Вы не можете добавлять вложения

Перейти:  
Для Мосгорсуда, Роскомнадзора и рекламодателей: mosgorsud-torrent[собачка]yandex.ru
 Вход
ppkBB3cker v.2 © 2008-2014 @ PPK
[ Time : 0.054s | 16 Queries | GZIP : Off ]

Торрент трекер RUTOR.IN, Не можете зайти на rutor.org? Какой новый адрес рутор? Какое зеркало рутор? Не работает rutor.org и зеркала? Тогда наш торрент специально для вас. Rutor.in неофициальное зеркало rutor. В случае если у Вас заблокирован rutor или вдруг Вы не можете на него зайти, то Вы без труда сможете скачать бесплатно и без рекламы последние новинки кино, игр, сериалов и прочего у нас, на Rutor.in. Не нужно использовать прокси, чтобы зайти на рутор, достаточно воспользоваться нашим ресурсом. Все новые фильмы, игры, сериалы, книги и музыка за 2013 и 2014 годы через торрент бесплатно. Скачивайте фильмы в хорошем качестве, игры для пк, xbox, playstation без регистрации. У нас вы найдете новые Зарубежные сериалы и Русские сериалы 2013, 2014, 2015 годов. Оставайтесь с нами, качайте любимые фильмы, игры, сериалы, книги и музыку.