img image001 image001 image001 image001 image001 image001 image001 image001 image001 image001 image001 image001 image001 image001 image001

Planets Sun Sun Sun
Статистика раздачи
Автор: Снежана | Размер: 1.45 ГБ | Добавлен: 24 июл 2013
Раздают: 7    Качают: 4
Скачать торрент
Скачать торрент
Описание торрента

СообщениеДобавлено: 24 июл 2013 

Камень / Kamen (2012) BDRip-AVC

Релиз от HQ-ViDEO


«Когда остаешься один, твое сердце превращается в...»

Год выхода: 2011
Страна: Россия
Жанр: Триллер
Режиссер: Вячеслав Каминский

В ролях: Сергей Светлаков, Николай Козак, Олеся Судзиловская, Александр Колесников, Валда Бичкуте, Елена Коренева, Сергей Насибов, Вячеслав Хархота, Семен Оконочников, Роман Володькин.

О фильме: Когда у известного бизнесмена похищают 7-летнего сына, он еще не представляет, какое испытание его ждет! Оказывается, таинственному похитителю не нужен никакой выкуп и у него единственное требование к отцу. В течение следующих суток тот должен решить, кто умрет из них двоих: его ребенок или он сам...


Релиз:

Автор рипа: agc

Продолжительность: 01:24:49
Перевод: Не требуется
Субтитры: Нет

Информация о файле:
Качество: BDRip (Исходник: )
Формат: MKV
Видео: MPEG-4 AVC; x264 codec, 1034 x 440, 2.37:1; 25 fps; ~ 2007 kbps; 0.176 bit/pixel
Аудио: 48 kHz, AC3 Dolby Digital, 3/2 (L,C,R,l,r) + LFE ch, ~448.00 kbps avg

Размер: 1491,35 Mb Mb (1/3 DVD)

x264 [info]: frame I:977 Avg QP:17.75 size: 62338
---[NoImage] x264 [info]: frame P:27147 Avg QP:20.46 size: 20147
---[NoImage] x264 [info]: frame B:99112 Avg QP:22.33 size: 6729
---[NoImage] x264 [info]: consecutive B-frames: 2.2% 2.9% 8.9% 13.8% 10.5% 53.5% 3.8% 1.0% 2.4% 0.5% 0.6%
---[NoImage] x264 [info]: mb I I16..4: 10.2% 72.9% 16.8%
---[NoImage] x264 [info]: mb P I16..4: 1.7% 13.2% 1.6% P16..4: 42.1% 24.9% 11.7% 0.0% 0.0% skip: 4.6%
---[NoImage] x264 [info]: mb B I16..4: 0.2% 0.7% 0.1% B16..8: 42.6% 10.5% 2.6% direct: 7.1% skip:36.2% L0:43.1% L1:46.8% BI:10.1%
---[NoImage] x264 [info]: 8x8 transform intra:77.8% inter:68.3%
---[NoImage] x264 [info]: coded y,uvDC,uvAC intra: 86.9% 76.3% 42.9% inter: 27.7% 19.9% 1.1%
---[NoImage] x264 [info]: i16 v,h,dc,p: 37% 21% 7% 34%
---[NoImage] x264 [info]: i8 v,h,dc,ddl,ddr,vr,hd,vl,hu: 13% 9% 6% 9% 13% 13% 13% 11% 12%
---[NoImage] x264 [info]: i4 v,h,dc,ddl,ddr,vr,hd,vl,hu: 13% 12% 3% 8% 14% 14% 14% 11% 13%
---[NoImage] x264 [info]: i8c dc,h,v,p: 34% 28% 21% 17%
---[NoImage] x264 [info]: Weighted P-Frames: Y:12.1% UV:6.4%
---[NoImage] x264 [info]: ref P L0: 42.6% 11.5% 19.8% 6.5% 5.8% 3.8% 3.7% 2.0% 2.1% 1.8% 0.4% 0.0%
---[NoImage] x264 [info]: ref B L0: 72.8% 12.2% 5.5% 3.0% 2.2% 1.9% 1.5% 0.6% 0.3%
---[NoImage] x264 [info]: ref B L1: 93.5% 6.5%
---[NoImage] x264 [info]: kb/s:2003.72

Формат : Matroska
Версия формата : Version 2
Размер файла : 1,45 Гбайт
Продолжительность : 1 ч. 24 м.
Общий поток : 2452 Кбит/сек
Дата кодирования : UTC 2012-02-19 11:57:52
Программа кодирования : mkvmerge v4.9.1 ('Ich will') сборка от Jul 11 2011 23:53:15
Библиотека кодирования : libebml v1.2.1 + libmatroska v1.1.1

Видео
Идентификатор : 1
Формат : AVC
Формат/Информация : Advanced Video Codec
Профиль формата : High@L4.1
Параметр CABAC формата : Нет
Параметр ReFrames формата : 9 кадров
Идентификатор кодека : V_MPEG4/ISO/AVC
Продолжительность : 1 ч. 24 м.
Битрейт : 2007 Кбит/сек
Ширина : 1034 пикселя
Высота : 440 пикселей
Соотношение сторон : 2,35:1
Частота кадров : 25,000 кадров/сек
Цветовое пространство : YUV
Субдискретизация насыщенности : 4:2:0
Битовая глубина : 8 бит
Тип развёртки : Прогрессивная
Бит/(Пиксели*Кадры) : 0.176
Размер потока : 1,16 Гбайт (80%)
Библиотека кодирования : x264 core 120 r2164 da19765
Настройки программы : cabac=0 / ref=9 / deblock=1:-2:-1 / analyse=0x3:0x113 / me=umh / subme=10 / psy=1 / psy_rd=1.05:0.05 / mixed_ref=1 / me_range=32 / chroma_me=1 / trellis=2 / 8x8dct=1 / cqm=0 / deadzone=21,11 / fast_pskip=0 / chroma_qp_offset=-3 / threads=6 / sliced_threads=0 / nr=0 / decimate=1 / interlaced=0 / bluray_compat=0 / constrained_intra=0 / bframes=10 / b_pyramid=2 / b_adapt=2 / b_bias=0 / direct=1 / weightb=1 / open_gop=0 / weightp=2 / keyint=250 / keyint_min=25 / scenecut=40 / intra_refresh=0 / rc=2pass / mbtree=0 / bitrate=2007 / ratetol=1.0 / qcomp=0.60 / qpmin=0 / qpmax=69 / qpstep=4 / cplxblur=20.0 / qblur=0.5 / ip_ratio=1.40 / pb_ratio=1.30 / aq=1:1.00

Аудио
Идентификатор : 2
Формат : AC-3
Формат/Информация : Audio Coding 3
Расширение режима : CM (complete main)
Идентификатор кодека : A_AC3
Продолжительность : 1 ч. 24 м.
Вид битрейта : Постоянный
Битрейт : 448 Кбит/сек
Каналы : 6 каналов
Расположение каналов : Front: L C R, Side: L R, LFE
Частота : 48,0 КГц
Битовая глубина : 16 бит
Метод сжатия : С потерями
Размер потока : 272 Мбайт (18%)
Язык : Russian

Скриншоты для оценки качества:


ПРИЯТНОГО ПРОСМОТРА!



   Похожие торренты   Торрент   Размер 
В этой теме нет новых непрочитанных сообщений. Камень (2012) BDRip от HQ-ViDEO

5 | 5

1.45 ГБ

В этой теме нет новых непрочитанных сообщений. Камень (2012) BDRip 720p от HQ-ViDEO

63 | 4

3.99 ГБ

В этой теме нет новых непрочитанных сообщений. Гарри Поттер и философский камень / Harry Potter and the Sorcerer's Stone (2001) BDRip от HQ-ViDEO | Theatrical Cut

2254 | 89

2.18 ГБ

В этой теме нет новых непрочитанных сообщений. Гарри Поттер и философский камень / Harry Potter and the Sorcerer's Stone (2001) BDRip-AVC от HQ-ViDEO | Theatrical Cut

523 | 19

2.9 ГБ

В этой теме нет новых непрочитанных сообщений. Гарри Поттер и философский камень / Harry Potter and the Sorcerer's Stone (2001) BDRip 720p от HQ-ViDEO | Theatrical Cut

224 | 58

6.99 ГБ

В этой теме нет новых непрочитанных сообщений. Камень (2011) BDRip от HELLYWOOD

7 | 3

1.45 ГБ

В этой теме нет новых непрочитанных сообщений. Камень (2011) BDRip 1080p

28 | 7

4.37 ГБ




Вы не можете начинать темы
Вы не можете отвечать на сообщения
Вы не можете редактировать свои сообщения
Вы не можете удалять свои сообщения
Вы не можете добавлять вложения

Перейти:  
Для Мосгорсуда, Роскомнадзора и рекламодателей: mosgorsud-torrent[собачка]yandex.ru
 Вход
ppkBB3cker v.2 © 2008-2014 @ PPK
[ Time : 0.023s | 14 Queries | GZIP : Off ]

Торрент трекер RUTOR.IN, Не можете зайти на rutor.org? Какой новый адрес рутор? Какое зеркало рутор? Не работает rutor.org и зеркала? Тогда наш торрент специально для вас. Rutor.in неофициальное зеркало rutor. В случае если у Вас заблокирован rutor или вдруг Вы не можете на него зайти, то Вы без труда сможете скачать бесплатно и без рекламы последние новинки кино, игр, сериалов и прочего у нас, на Rutor.in. Не нужно использовать прокси, чтобы зайти на рутор, достаточно воспользоваться нашим ресурсом. Все новые фильмы, игры, сериалы, книги и музыка за 2013 и 2014 годы через торрент бесплатно. Скачивайте фильмы в хорошем качестве, игры для пк, xbox, playstation без регистрации. У нас вы найдете новые Зарубежные сериалы и Русские сериалы 2013, 2014, 2015 годов. Оставайтесь с нами, качайте любимые фильмы, игры, сериалы, книги и музыку.