img image001 image001 image001 image001 image001 image001 image001 image001 image001 image001 image001 image001 image001 image001 image001

Planets Sun Sun Sun
Статистика раздачи
Автор: Снежана | Размер: 2.2 ГБ | Добавлен: 24 июл 2013
Раздают: 0    Качают: 3
Скачать торрент
Скачать торрент
Описание торрента

СообщениеДобавлено: 24 июл 2013 

Камень
(2011)
BDRip-Hi10P 1080p от FREEISLAND



Год выхода: 2012
Жанр: Триллер
Режиссер: Вячеслав Каминский
В ролях: Сергей Светлаков, Олеся Судзиловская, Николай Козак, Елена Коренева, Валда Бичкуте, Александр Колесников

Описание:
Фильм снят на основе романа Юрия Бригадира «Не жить».

Когда у известного бизнесмена похищают 7-летнего сына, он еще не представляет, какое испытание его ждет! Оказывается, таинственному похитителю не нужен никакой выкуп и у него единственное требование к отцу. В течение следующих суток тот должен решить, кто умрет из них двоих: его ребенок или он сам...



Официальный сайт

Страна: Россия
Выпущено: Slava Film Company
Продолжительность: 1 ч. 24 м. 49 с.
Перевод: оригинал [лицензия]
Оригинальная разбивка на главы: сохранена

Качество: BDRip-Hi10P 1080p (SSIM: 0.9883746)
Исходник: Blu-Ray Disk
Контейнер: MKV
Видео кодек: x264 High10@L5.1 (не совместим с большинством бытовых плееров)
Аудио кодек: AC-3
Видео: AVC at 3070 Кбит/сек, 1440 x 816 @ 1918 x 816 (2.349) at 25.000 fps
Аудио: AC-3 at 640 Кбит/сек, 6 каналов, 48,0 КГц
Субтитры: нет

Общее
Уникальный идентификатор : 185352983737291987764859896000594542498 (0x8B71AFA895289033B0F60125D7877FA2)
Полное имя : Камень (2012) BDRip-Hi10P 1080p.mkv
Формат : Matroska
Версия формата : Version 2
Размер файла : 2,20 Гбайт
Продолжительность : 1 ч. 24 м.
Общий поток : 3706 Кбит/сек
Название фильма : релиз от FREEISLAND.ORG
Дата кодирования : UTC 2012-02-22 12:02:36
Программа кодирования : mkvmerge v5.2.1 ('A Far Off Place') built on Jan 2 2012 23:21:10
Библиотека кодирования : libebml v1.2.3 + libmatroska v1.3.0

Видео
Идентификатор : 1
Формат : AVC
Формат/Информация : Advanced Video Codec
Профиль формата : High 10@L5.1
Параметр CABAC формата : Да
Параметр ReFrames формата : 16 кадров
Идентификатор кодека : V_MPEG4/ISO/AVC
Продолжительность : 1 ч. 24 м.
Битрейт : 3070 Кбит/сек
Ширина : 1440 пикселей
Высота : 816 пикселей
Соотношение сторон : 2,35:1
Соотношение сторон в оригинале : 2,35:1
Частота кадров : 25,000 кадров/сек
Цветовое пространство : YUV
Субдискретизация насыщенности : 4:2:0
Битовая глубина : 10 бит
Тип развёртки : Прогрессивная
Бит/(Пиксели*Кадры) : 0.105
Размер потока : 1,77 Гбайт (81%)
Библиотека кодирования : x264 core 120 r2164+649+26 fcfb618 tMod [10-bit@all X86]
Настройки программы : cabac=1 / ref=16 / deblock=1:-1:-1 / analyse=0x3:0x133 / me=umh / subme=11 / psy=1 / fade_compensate=0.00 / psy_rd=1.00:0.00 / mixed_ref=1 / me_range=64 / chroma_me=1 / trellis=2 / 8x8dct=1 / cqm=0 / deadzone=21,11 / fast_pskip=0 / chroma_qp_offset=-2 / threads=12 / sliced_threads=0 / nr=0 / decimate=1 / interlaced=0 / bluray_compat=0 / constrained_intra=0 / fgo=0 / bframes=12 / b_pyramid=2 / b_adapt=2 / b_bias=0 / direct=3 / weightb=1 / open_gop=0 / weightp=2 / keyint=250 / keyint_min=25 / scenecut=40 / intra_refresh=0 / rc=2pass / mbtree=0 / bitrate=3070 / ratetol=1.0 / qcomp=1.00 / qpmin=0 / qpmax=48 / qpstep=4 / cplxblur=20.0 / qblur=0.5 / ip_ratio=1.40 / pb_ratio=1.30 / aq=3:1.00
Язык : Russian
Default : Да
Forced : Нет
Основные цвета : BT.709-5, BT.1361, IEC 61966-2-4, SMPTE RP177
Характеристики трансфера : BT.709-5, BT.1361
Коэффициенты матрицы : BT.709-5, BT.1361, IEC 61966-2-4 709, SMPTE RP177

Аудио
Идентификатор : 2
Формат : AC-3
Формат/Информация : Audio Coding 3
Расширение режима : CM (complete main)
Идентификатор кодека : A_AC3
Продолжительность : 1 ч. 24 м.
Вид битрейта : Постоянный
Битрейт : 640 Кбит/сек
Каналы : 6 каналов
Расположение каналов : Front: L C R, Side: L R, LFE
Частота : 48,0 КГц
Битовая глубина : 16 бит
Метод сжатия : С потерями
Размер потока : 388 Мбайт (17%)
Язык : Russian
Default : Да
Forced : Нет

Меню
00:00:00.000 : :01
00:00:39.000 : :02
00:11:18.880 : :03
00:22:26.840 : :04
00:32:14.960 : :05
00:42:02.600 : :06
00:52:13.080 : :07
01:02:49.560 : :08
01:12:03.439 : :09


















Релиз от:

Если у вас возникают вопросы типа:
-почему у меня есть звук и отсутствует изображение?
-почему у меня рассыпается картинка?
-почему у меня картинка фонит синевой или зеленью?
-зачем и кому всё это нужно?
и тому подобные, читаем FAQ.
ссылка на FAQ запрещена правилами.

По этому, гуглим на тему спойлера (Что такое 10-ти битное видео (High 10 Profile - Hi10P), и как его смотреть?).



   Похожие торренты   Торрент   Размер 
В этой теме нет новых непрочитанных сообщений. Камень (2011) DVDRip-AVC от Freeisland

0 | 2

698.14 МБ

В этой теме нет новых непрочитанных сообщений. Камень (2011) BDRip 1080p

28 | 7

4.37 ГБ

В этой теме нет новых непрочитанных сообщений. Бабло (2011) BDRip 1080p от Freeisland

42 | 2

4.37 ГБ

В этой теме нет новых непрочитанных сообщений. Мой путь / Mai wei / My Way (2011) BDRip 1080p от FREEISLAND

29 | 4

5.98 ГБ

В этой теме нет новых непрочитанных сообщений. Всем нужна Кэт / Cat Run (2011) BDRip 1080p от Freeisland

1 | 3

4.38 ГБ

В этой теме нет новых непрочитанных сообщений. Нокаут / Haywire (2011) BDRip 1080p от FREEISLAND

50 | 2

4.37 ГБ

В этой теме нет новых непрочитанных сообщений. Самсара / Samsara (2011) BDRip 1080p от FREEISLAND

356 | 28

7.95 ГБ




Вы не можете начинать темы
Вы не можете отвечать на сообщения
Вы не можете редактировать свои сообщения
Вы не можете удалять свои сообщения
Вы не можете добавлять вложения

Перейти:  
Для Мосгорсуда, Роскомнадзора и рекламодателей: mosgorsud-torrent[собачка]yandex.ru
 Вход
ppkBB3cker v.2 © 2008-2014 @ PPK
[ Time : 0.535s | 14 Queries | GZIP : Off ]

Торрент трекер RUTOR.IN, Не можете зайти на rutor.org? Какой новый адрес рутор? Какое зеркало рутор? Не работает rutor.org и зеркала? Тогда наш торрент специально для вас. Rutor.in неофициальное зеркало rutor. В случае если у Вас заблокирован rutor или вдруг Вы не можете на него зайти, то Вы без труда сможете скачать бесплатно и без рекламы последние новинки кино, игр, сериалов и прочего у нас, на Rutor.in. Не нужно использовать прокси, чтобы зайти на рутор, достаточно воспользоваться нашим ресурсом. Все новые фильмы, игры, сериалы, книги и музыка за 2013 и 2014 годы через торрент бесплатно. Скачивайте фильмы в хорошем качестве, игры для пк, xbox, playstation без регистрации. У нас вы найдете новые Зарубежные сериалы и Русские сериалы 2013, 2014, 2015 годов. Оставайтесь с нами, качайте любимые фильмы, игры, сериалы, книги и музыку.