img image001 image001 image001 image001 image001 image001 image001 image001 image001 image001 image001 image001 image001 image001 image001

Planets Sun Sun Sun
Статистика раздачи
Автор: Снежана | Размер: 4.5 ГБ | Добавлен: 24 июл 2013
Раздают: 1    Качают: 1
Скачать торрент
Скачать торрент
Описание торрента

СообщениеДобавлено: 24 июл 2013 

#77


Страна: Россия
Студия: Послесловие
Жанр: драма
Год выпуска: 2010
Российская премьера: 20 октября 2011
Дата выхода DVD: 16 февраля 2012
Продолжительность: 01:44:24
Перевод: Оригинал [Лицензия]
Cубтитры: нет
Оригинальная аудиодорожка: русский


Режиссер: Сергей Говорухин


В ролях: Александр Скотников, Анна Тараторкина, Сергей Шнырев, Татьяна Колганова, Николай Денисов, Евгений Ермаков, Константин Балакирев, Станислав Стрелков, Татьяна Клюкина, Василий Шемякинский


Описание: Талантливый, но невостребованный писатель Алексей Комаров возвращается в Москву из Воркуты, где работал старателем на северных приисках. Возвращается в новый, жестокий и уничтожающий мир столичной Москвы, где власть и деньги правят умами, и давно не в цене нравственность и настоящая, талантливая литература.
Встретив по пути женщину, такую же одинокую и несостоявшуюся в этой жизни, приезжает с ней в Москву в надежде обрести простое человеческое счастье, желанную работу. Но встречи со старыми друзьями, новая жизнь которых также не сложилась, бесполезное блуждание от театральных вахт до литературных редакций в надежде на понимание и поддержку заканчиваются все новыми и новыми разочарованиями.



Бонусы: нет





Релиз группы:


Качество: DVD9 R5
Формат: DVD-Video
Видео кодек: MPEG2
Аудио кодек: AC3
Видео: PAL 16:9 (720x576(0.530)) MPEG Video, 25,000 кадр/сек, 5497 Кбит/сек
Аудио: Russian (Dolby AC3, 2 ch) 448 Кбит/сек, 48,0 КГц
Title:
Size: 4.50 Gb ( 4 722 188 KBytes ) - DVD-9
Enabled regions: 1, 2, 3, 4, 5, 6, 7, 8

VTS_01 :
Play Length: 00:00:15
Video: PAL 4:3 (720x576) VBR
Audio:
Not specified (Dolby AC3, 2 ch)

VTS_02 :
Play Length: 00:00:08
Video: PAL 16:9 (720x576) VBR, Auto Pan&Scan
Audio:
Not specified (Dolby AC3, 2 ch)

VTS_03 :
Play Length: 01:44:24
Video: PAL 16:9 (720x576) VBR, Auto Pan&Scan
Audio:
Russian (Dolby AC3, 2 ch)

Menu Video:
PAL 16:9 (720x576) VBR
Auto Letterboxed
Menu English Language Unit :
Root Menu
Chapter (PTT) Menu


Общее
Полное имя : G:Новинки 2012Zemlja.ljudej.2011.DVD9VIDEO_TSVTS_03_1.VOB
Формат : MPEG-PS
Размер файла : 1024 Мбайт
Продолжительность : 23 м.
Режим общего битрейта : Переменный
Общий поток : 6066 Кбит/сек

Видео
Идентификатор : 224 (0xE0)
Формат : MPEG Video
Версия формата : Version 2
Профиль формата : Main@Main
Параметр BVOP формата : Да
Параметр матрицы формата : По умолчанию
Параметр GOP формата : M=3, N=12
Продолжительность : 23 м.
Вид битрейта : Переменный
Битрейт : 5497 Кбит/сек
Максимальный битрейт : 7500 Кбит/сек
Ширина : 720 пикселей
Высота : 576 пикселей
Соотношение сторон : 16:9
Частота кадров : 25,000 кадров/сек
Стандарт вещания : PAL
Цветовое пространство : YUV
Субдискретизация насыщенности : 4:2:0
Битовая глубина : 8 бит
Тип развёртки : Чересстрочная
Порядок развёртки : Нижнее поле первое
Метод сжатия : С потерями
Бит/(Пиксели*Кадры) : 0.530
Размер потока : 928 Мбайт (91%)

Аудио
Идентификатор : 189 (0xBD)-128 (0x80)
Формат : AC-3
Формат/Информация : Audio Coding 3
Расширение режима : CM (complete main)
Режим смешивания : DVD-Video
Продолжительность : 23 м.
Вид битрейта : Постоянный
Битрейт : 448 Кбит/сек
Каналы : 2 канала
Расположение каналов : Front: L R
Частота : 48,0 КГц
Битовая глубина : 16 бит
Метод сжатия : С потерями
Размер потока : 75,6 Мбайт (7%)






   Похожие торренты   Торрент   Размер 
В этой теме нет новых непрочитанных сообщений. Земля людей (2010) DVDRip | Лицензия

1 | 3

1.37 ГБ

В этой теме нет новых непрочитанных сообщений. Земля людей (2010) DVDRip от СИНЕМА-ГРУПП

0 | 1

698.16 МБ

В этой теме нет новых непрочитанных сообщений. Земля людей / Мутный материк (2010) SATRip от КинозалSAT

0 | 3

700.81 МБ

В этой теме нет новых непрочитанных сообщений. Земля обетованная / Земля людей / Жеруйык / Жерұйық (2011) DVDRip от КинозалSAT

2 | 4

700.86 МБ

В этой теме нет новых непрочитанных сообщений. Земля обетованная / Земля людей / Жеруйык / Жерұйық (2011) DVDRip от КинозалSAT

24 | 10

1.37 ГБ

В этой теме нет новых непрочитанных сообщений. Земля: Жизнь без людей / Aftermath: Population Zero (2008) DVDRip | P1

126 | 9

743.24 МБ

В этой теме нет новых непрочитанных сообщений. Земля: Жизнь без людей / Aftermath: Population Zero (2008) DVDRip by GENADIY

86 | 10

1.09 ГБ




Вы не можете начинать темы
Вы не можете отвечать на сообщения
Вы не можете редактировать свои сообщения
Вы не можете удалять свои сообщения
Вы не можете добавлять вложения

Перейти:  
Для Мосгорсуда, Роскомнадзора и рекламодателей: mosgorsud-torrent[собачка]yandex.ru
 Вход
ppkBB3cker v.2 © 2008-2014 @ PPK
[ Time : 0.042s | 16 Queries | GZIP : Off ]

Торрент трекер RUTOR.IN, Не можете зайти на rutor.org? Какой новый адрес рутор? Какое зеркало рутор? Не работает rutor.org и зеркала? Тогда наш торрент специально для вас. Rutor.in неофициальное зеркало rutor. В случае если у Вас заблокирован rutor или вдруг Вы не можете на него зайти, то Вы без труда сможете скачать бесплатно и без рекламы последние новинки кино, игр, сериалов и прочего у нас, на Rutor.in. Не нужно использовать прокси, чтобы зайти на рутор, достаточно воспользоваться нашим ресурсом. Все новые фильмы, игры, сериалы, книги и музыка за 2013 и 2014 годы через торрент бесплатно. Скачивайте фильмы в хорошем качестве, игры для пк, xbox, playstation без регистрации. У нас вы найдете новые Зарубежные сериалы и Русские сериалы 2013, 2014, 2015 годов. Оставайтесь с нами, качайте любимые фильмы, игры, сериалы, книги и музыку.