img image001 image001 image001 image001 image001 image001 image001 image001 image001 image001 image001 image001 image001 image001 image001

Planets Sun Sun Sun
Статистика раздачи
Автор: Снежана | Размер: 1.45 ГБ | Добавлен: 24 июл 2013
Раздают: 8    Качают: 4
Скачать торрент
Скачать торрент
Описание торрента

СообщениеДобавлено: 24 июл 2013 

#77

Жанр: мюзикл, драма, мелодрама, комедия
Страна: СССР
Режиссер: Карен Шахназаров
В ролях: Евгений Евстигнеев, Аркадий Насыров, Александр Панкратов-Черный, Наталья Гундарева, Сергей Никоненко, Петр Щербаков, Георгий Бурков, Михаил Державин, Александр Ширвиндт, Светлана Аманова

Сюжет фильма: Некогда знаменитый чечеточник, кумир публики, ныне живет скромно и незаметно. Он репетитор танцев в эстрадном коллективе, где блещут иные «звезды». И вдруг происходит несколько неожиданных событий, решительно нарушающих привычное, спокойное течение жизни старого артиста. Все началось с появления немного странного, очень напористого мололого человека. Совершенно лишенный чувства ритма, он потребовал, чтобы его ни много ни мало научили «бить степ»...

Покадровая реставрация изображения и ремастеринг звука проведены объединением «Крупный план»

Мировая премьера: 25 декабря 1985



Личная оценка: 10 - всем советую
Продолжительность: 01:25:02
Качество видео: DVDRip-AVC (рип с DVD5)
Видео: кодек: x264, размер кадра: 720x544, битрейт: 2055 кб/с, bit/pixel: 0.210
Аудио: язык: Русский , перевод: оригинал, кодек: AC3 5.1, битрейт: 384 кб/с

Релиз группы: Автор рипа:

Общее
Уникальный идентификатор : 211067596034053962478325095064689071916 (0x9ECA23EDEC87C05BB3A165B26FFE572C)
Формат : Matroska
Версия формата : Version 2
Размер файла : 1,45 Гбайт
Продолжительность : 1 ч. 25 м.
Общий поток : 2441 Кбит/сек
Название фильма : Зимний вечер в Гаграх (1985) DVDRip-AVC rip by tise
Дата кодирования : UTC 2012-02-23 21:48:19
Программа кодирования : mkvmerge v5.2.1 ('A Far Off Place') built on Jan 2 2012 23:21:10
Библиотека кодирования : libebml v1.2.3 + libmatroska v1.3.0

Видео
Идентификатор : 1
Формат : AVC
Формат/Информация : Advanced Video Codec
Профиль формата : High@L4.1
Параметр CABAC формата : Да
Параметр ReFrames формата : 6 кадров
Идентификатор кодека : V_MPEG4/ISO/AVC
Продолжительность : 1 ч. 25 м.
Битрейт : 2055 Кбит/сек
Ширина : 720 пикселей
Высота : 544 пикселя
Соотношение сторон : 4:3
Частота кадров : 25,000 кадров/сек
Цветовое пространство : YUV
Субдискретизация насыщенности : 4:2:0
Битовая глубина : 8 бит
Тип развёртки : Прогрессивная
Бит/(Пиксели*Кадры) : 0.210
Размер потока : 1,19 Гбайт (82%)
Библиотека кодирования : x264 core 120 r2164 da19765
Настройки программы : cabac=1 / ref=6 / deblock=1:-1:-1 / analyse=0x3:0x133 / me=umh / subme=9 / psy=1 / psy_rd=1.00:0.10 / mixed_ref=1 / me_range=32 / chroma_me=1 / trellis=2 / 8x8dct=1 / cqm=0 / deadzone=21,11 / fast_pskip=0 / chroma_qp_offset=-3 / threads=6 / sliced_threads=0 / nr=0 / decimate=1 / interlaced=0 / bluray_compat=0 / constrained_intra=0 / bframes=5 / b_pyramid=2 / b_adapt=2 / b_bias=0 / direct=3 / weightb=1 / open_gop=0 / weightp=2 / keyint=250 / keyint_min=23 / scenecut=40 / intra_refresh=0 / rc_lookahead=40 / rc=2pass / mbtree=1 / bitrate=2055 / ratetol=1.0 / qcomp=0.60 / qpmin=10 / qpmax=51 / qpstep=4 / cplxblur=20.0 / qblur=0.5 / ip_ratio=1.40 / aq=1:1.00
Default : Да
Forced : Нет

Аудио
Идентификатор : 2
Формат : AC-3
Формат/Информация : Audio Coding 3
Расширение режима : CM (complete main)
Идентификатор кодека : A_AC3
Продолжительность : 1 ч. 25 м.
Вид битрейта : Постоянный
Битрейт : 384 Кбит/сек
Каналы : 6 каналов
Расположение каналов : Front: L C R, Side: L R, LFE
Частота : 48,0 КГц
Битовая глубина : 16 бит
Метод сжатия : С потерями
Размер потока : 234 Мбайт (16%)
Заголовок : оригинал
Язык : Russian
Default : Да
Forced : Нет





   Похожие торренты   Торрент   Размер 
В этой теме нет новых непрочитанных сообщений. Зимний вечер в Гаграх (1985) DVDRip от PowerTracker

1 | 2

1.37 ГБ

В этой теме нет новых непрочитанных сообщений. Зимний вечер в Гаграх (1985) DVDRip

216 | 20

1.41 ГБ

В этой теме нет новых непрочитанных сообщений. Зимний вечер в Гаграх (1985) DVDRip

12 | 3

1.37 ГБ

В этой теме нет новых непрочитанных сообщений. Зимний вечер в Гаграх (1985) DVDRip от ENGINEER

53 | 9

1.46 ГБ

В этой теме нет новых непрочитанных сообщений. Зимний вечер в Гаграх (1985) DVDRip от R.G.RealMT | Реставрация

49 | 6

1.12 ГБ

В этой теме нет новых непрочитанных сообщений. Зимний вечер в Гаграх (1985) DVD9 | Реставрация

20 | 29

4.66 ГБ

В этой теме нет новых непрочитанных сообщений. Сборник - В зимний вечер у камина (2015) MP3

90 | 5

746.11 МБ




Вы не можете начинать темы
Вы не можете отвечать на сообщения
Вы не можете редактировать свои сообщения
Вы не можете удалять свои сообщения
Вы не можете добавлять вложения

Перейти:  
Для Мосгорсуда, Роскомнадзора и рекламодателей: mosgorsud-torrent[собачка]yandex.ru
 Вход
ppkBB3cker v.2 © 2008-2014 @ PPK
[ Time : 0.551s | 14 Queries | GZIP : Off ]

Торрент трекер RUTOR.IN, Не можете зайти на rutor.org? Какой новый адрес рутор? Какое зеркало рутор? Не работает rutor.org и зеркала? Тогда наш торрент специально для вас. Rutor.in неофициальное зеркало rutor. В случае если у Вас заблокирован rutor или вдруг Вы не можете на него зайти, то Вы без труда сможете скачать бесплатно и без рекламы последние новинки кино, игр, сериалов и прочего у нас, на Rutor.in. Не нужно использовать прокси, чтобы зайти на рутор, достаточно воспользоваться нашим ресурсом. Все новые фильмы, игры, сериалы, книги и музыка за 2013 и 2014 годы через торрент бесплатно. Скачивайте фильмы в хорошем качестве, игры для пк, xbox, playstation без регистрации. У нас вы найдете новые Зарубежные сериалы и Русские сериалы 2013, 2014, 2015 годов. Оставайтесь с нами, качайте любимые фильмы, игры, сериалы, книги и музыку.