img image001 image001 image001 image001 image001 image001 image001 image001 image001 image001 image001 image001 image001 image001 image001

Planets Sun Sun Sun
Статистика раздачи
Автор: Снежана | Размер: 2.18 ГБ | Добавлен: 24 июл 2013
Раздают: 396    Качают: 30
Скачать торрент
Скачать торрент
Описание торрента

СообщениеДобавлено: 24 июл 2013 

Generation П / Generation П (2011) BDRip-AVC
Релиз от HQ-ViDEO


Студия: Generation P, Rambler Media, РУМ, Триграф
Год выхода: 2011
Жанр: Фантастика, Драма, Комедия

Режиссер: Виктор Гинзбург

В ролях: Владимир Епифанцев, Михаил Ефремов, Андрей Фомин, Сергей Шнуров, Андрей Панин, Александр Гордон, Рената Литвинова, Владимир Меньшов, Олег Тактаров, Юрий Сафаров, Роман Трахтенберг, Игорь Миркурбанов, Иван Охлобыстин, Амалия Мордвинова, Игорь Григорьев, Андрей Васильев, Елена Полякова, Леонид Парфенов, Михаил Дорожкин, Василий Горчаков, Марианна Максимовская, Юлия Бордовских, Константин Крюков, Наталья Дворецкая, Алексей Подольский, Борис Покровский, Кирилл Дыжин, Михаил Пинке, Алексей Вейцлер, Эдуардо Паллетвара, Хенрик Винтер, Эндрю Патрик Хардести, Олег Семисынов, Юрий Анпилогов

О фильме: Основанный на культовом романе Виктора Пелевина фильм во многом строится на галлюцинациях - включая речь Че Гевары о том, почему и как телевидение разрушает человека. Однако через изменённую реальность проступает кропотливо восстановленная атмосфера Москвы в 90-е годы, на фоне которой и разворачивается действие картины. Вавилен Татарский, нашедший себя в новой жизни в роли сотрудника рекламного агентства, занимается продвижением западных брендов, адаптируя их под . Умный и местами чудовищно смешной, насыщенный спецэффектами и откровениями фильм делает простой и понятной сложную историю о том, как бывшие пионеры стали рекламщиками на службе у богини Иштар, а выбрало Coca-Cola.



Релиз:

Автор рипа: agc

Продолжительность: 01:56:20
Перевод:
Субтитры:

Информация о файле:
Формат: MKV
Кодек: MPEG-4 AVC; x264 codec
Качество: BDRip-AVC (Исходник: BDRemux)
Видео: 1034 x 440 (2,35:1); 23.976 fps; 2240 kbps; 0.205 bit/pixel
Аудио: AC3 Dolby Digital; 448 kbps; 5.1 Ch; 48 kHz |Russian|
Размер файла: 2237,32 Mb (1/2 DVD)

Скриншоты для оценки качества (превью - увеличение по клику):



Сэмпл

Формат : Matroska
Версия формата : Version 2
Размер файла : 2,18 Гбайт
Продолжительность : 1 ч. 56 м.
Общий поток : 2688 Кбит/сек
Дата кодирования : UTC 2012-02-27 08:20:19
Программа кодирования : mkvmerge v4.9.1 ('Ich will') сборка от Jul 11 2011 23:53:15
Библиотека кодирования : libebml v1.2.1 + libmatroska v1.1.1

Видео
Идентификатор : 1
Формат : AVC
Формат/Информация : Advanced Video Codec
Профиль формата : High@L4.1
Параметр CABAC формата : Да
Параметр ReFrames формата : 11 кадров
Идентификатор кодека : V_MPEG4/ISO/AVC
Продолжительность : 1 ч. 56 м.
Битрейт : 2240 Кбит/сек
Ширина : 1034 пикселя
Высота : 440 пикселей
Соотношение сторон : 2,35:1
Частота кадров : 23,976 кадра/сек
Цветовое пространство : YUV
Субдискретизация насыщенности : 4:2:0
Битовая глубина : 8 бит
Тип развёртки : Прогрессивная
Бит/(Пиксели*Кадры) : 0.205
Размер потока : 1,78 Гбайт (81%)
Библиотека кодирования : x264 core 120 r2164 da19765
Настройки программы : cabac=1 / ref=11 / deblock=1:-2:-2 / analyse=0x3:0x113 / me=umh / subme=10 / psy=1 / psy_rd=1.05:0.10 / mixed_ref=1 / me_range=32 / chroma_me=1 / trellis=2 / 8x8dct=1 / cqm=0 / deadzone=21,11 / fast_pskip=0 / chroma_qp_offset=-3 / threads=6 / sliced_threads=0 / nr=0 / decimate=1 / interlaced=0 / bluray_compat=0 / constrained_intra=0 / bframes=11 / b_pyramid=2 / b_adapt=2 / b_bias=0 / direct=1 / weightb=1 / open_gop=0 / weightp=2 / keyint=240 / keyint_min=23 / scenecut=40 / intra_refresh=0 / rc=2pass / mbtree=0 / bitrate=2240 / ratetol=1.0 / qcomp=0.60 / qpmin=0 / qpmax=69 / qpstep=4 / cplxblur=20.0 / qblur=0.5 / ip_ratio=1.40 / pb_ratio=1.30 / aq=1:1.00

Аудио
Идентификатор : 2
Формат : AC-3
Формат/Информация : Audio Coding 3
Расширение режима : CM (complete main)
Идентификатор кодека : A_AC3
Продолжительность : 1 ч. 56 м.
Вид битрейта : Постоянный
Битрейт : 448 Кбит/сек
Каналы : 6 каналов
Расположение каналов : Front: L C R, Side: L R, LFE
Частота : 48,0 КГц
Битовая глубина : 16 бит
Метод сжатия : С потерями
Размер потока : 373 Мбайт (17%)
Язык : Russian


ПРИЯТНОГО ПРОСМОТРА!



   Похожие торренты   Торрент   Размер 
В этой теме нет новых непрочитанных сообщений. Генное поколение / The Gene Generation (2007) BDRip от HQ-ViDEO

1 | 4

1.76 ГБ

В этой теме нет новых непрочитанных сообщений. Generation П (2011) BDRip от HELLYWOOD

10 | 2

2.18 ГБ

В этой теме нет новых непрочитанных сообщений. Generation П (2011) BDRip 1080p

250 | 10

4.37 ГБ

В этой теме нет новых непрочитанных сообщений. Generation П (2011) BDRip от HQCLUB

49 | 4

2.18 ГБ

В этой теме нет новых непрочитанных сообщений. Generation П (2011) BDRip 1080p от 3HRZer0

24 | 4

10.73 ГБ

В этой теме нет новых непрочитанных сообщений. Generation П (2011) BDRip 720p | Лицензия

142 | 2

5.85 ГБ

В этой теме нет новых непрочитанных сообщений. Концерт Girls’ Generation Tour / Girls’ Generation Tour (2011) DVDRip

107 | 30

2.77 ГБ




Вы не можете начинать темы
Вы не можете отвечать на сообщения
Вы не можете редактировать свои сообщения
Вы не можете удалять свои сообщения
Вы не можете добавлять вложения

Перейти:  
Для Мосгорсуда, Роскомнадзора и рекламодателей: mosgorsud-torrent[собачка]yandex.ru
 Вход
ppkBB3cker v.2 © 2008-2014 @ PPK
[ Time : 0.017s | 16 Queries | GZIP : Off ]

Торрент трекер RUTOR.IN, Не можете зайти на rutor.org? Какой новый адрес рутор? Какое зеркало рутор? Не работает rutor.org и зеркала? Тогда наш торрент специально для вас. Rutor.in неофициальное зеркало rutor. В случае если у Вас заблокирован rutor или вдруг Вы не можете на него зайти, то Вы без труда сможете скачать бесплатно и без рекламы последние новинки кино, игр, сериалов и прочего у нас, на Rutor.in. Не нужно использовать прокси, чтобы зайти на рутор, достаточно воспользоваться нашим ресурсом. Все новые фильмы, игры, сериалы, книги и музыка за 2013 и 2014 годы через торрент бесплатно. Скачивайте фильмы в хорошем качестве, игры для пк, xbox, playstation без регистрации. У нас вы найдете новые Зарубежные сериалы и Русские сериалы 2013, 2014, 2015 годов. Оставайтесь с нами, качайте любимые фильмы, игры, сериалы, книги и музыку.
cron